  0
SECTION
  2
HEADER
  9
$ACADVER
  1
AC1027
  9
$ACADMAINTVER
 70
   125
  9
$DWGCODEPAGE
  3
ANSI_932
  9
$AUTHOR
  1
hakko34
  9
$LASTSAVEDBY
  1
hakko34
  9
$REVISIONNUMBER
  1
1
  9
$CUSTOMPROPERTYTAG
  1
マネージャ
  9
$CUSTOMPROPERTY
  1

  9
$CUSTOMPROPERTYTAG
  1
会社
  9
$CUSTOMPROPERTY
  1

  9
$CUSTOMPROPERTYTAG
  1
カテゴリ
  9
$CUSTOMPROPERTY
  1

  9
$CUSTOMPROPERTYTAG
  1
Part Number
  9
$CUSTOMPROPERTY
  1
E-ELF-19-15A
  9
$CUSTOMPROPERTYTAG
  1
Description
  9
$CUSTOMPROPERTY
  1

  9
$CUSTOMPROPERTYTAG
  1
プロジェクト
  9
$CUSTOMPROPERTY
  1

  9
$CUSTOMPROPERTYTAG
  1
Designer
  9
$CUSTOMPROPERTY
  1
hakko34
  9
$CUSTOMPROPERTYTAG
  1
Engineer
  9
$CUSTOMPROPERTY
  1

  9
$CUSTOMPROPERTYTAG
  1
責任者
  9
$CUSTOMPROPERTY
  1

  9
$CUSTOMPROPERTYTAG
  1
コスト センター
  9
$CUSTOMPROPERTY
  1

  9
$CUSTOMPROPERTYTAG
  1
原価
  9
$CUSTOMPROPERTY
  1

  9
$CUSTOMPROPERTYTAG
  1
ベンダー
  9
$CUSTOMPROPERTY
  1

  9
$CUSTOMPROPERTYTAG
  1
ユーザ ステータス
  9
$CUSTOMPROPERTY
  1

  9
$CUSTOMPROPERTYTAG
  1
設計ステータス
  9
$CUSTOMPROPERTY
  1
作業中
  9
$CUSTOMPROPERTYTAG
  1
確認者
  9
$CUSTOMPROPERTY
  1

  9
$CUSTOMPROPERTYTAG
  1
エンジニアリング承認者
  9
$CUSTOMPROPERTY
  1

  9
$CUSTOMPROPERTYTAG
  1
製造承認者
  9
$CUSTOMPROPERTY
  1

  9
$CUSTOMPROPERTYTAG
  1
作成日
  9
$CUSTOMPROPERTY
  1
02/15/2018
  9
$CUSTOMPROPERTYTAG
  1
ストック番号
  9
$CUSTOMPROPERTY
  1

  9
$CUSTOMPROPERTYTAG
  1
図面名称
  9
$CUSTOMPROPERTY
  1

  9
$CUSTOMPROPERTYTAG
  1
図面番号
  9
$CUSTOMPROPERTY
  1

  9
$CUSTOMPROPERTYTAG
  1
帳票No.
  9
$CUSTOMPROPERTY
  1

  9
$CUSTOMPROPERTYTAG
  1
検図
  9
$CUSTOMPROPERTY
  1

  9
$CUSTOMPROPERTYTAG
  1
製図
  9
$CUSTOMPROPERTY
  1

  9
$CUSTOMPROPERTYTAG
  1
承認
  9
$CUSTOMPROPERTY
  1

  9
$REQUIREDVERSIONS
160
                 0
  9
$INSBASE
 10
0.0
 20
0.0
 30
0.0
  9
$EXTMIN
 10
8.000814649726756
 20
4.998509741455601
 30
0.0
  9
$EXTMAX
 10
412.0008146497267
 20
295.1722197160614
 30
0.0
  9
$LIMMIN
 10
0.0
 20
0.0
  9
$LIMMAX
 10
420.0
 20
297.0
  9
$ORTHOMODE
 70
     0
  9
$REGENMODE
 70
     1
  9
$FILLMODE
 70
     1
  9
$QTEXTMODE
 70
     0
  9
$MIRRTEXT
 70
     0
  9
$LTSCALE
 40
1.0
  9
$ATTMODE
 70
     1
  9
$TEXTSIZE
 40
0.2
  9
$TRACEWID
 40
0.05
  9
$TEXTSTYLE
  7
Standard
  9
$CLAYER
  8
0
  9
$CELTYPE
  6
ByLayer
  9
$CECOLOR
 62
   256
  9
$CELTSCALE
 40
1.0
  9
$DISPSILH
 70
     0
  9
$DIMSCALE
 40
1.0
  9
$DIMASZ
 40
1.799999999999999
  9
$DIMEXO
 40
0.0625
  9
$DIMDLI
 40
0.38
  9
$DIMRND
 40
0.0
  9
$DIMDLE
 40
0.0
  9
$DIMEXE
 40
0.18
  9
$DIMTP
 40
0.0
  9
$DIMTM
 40
0.0
  9
$DIMTXT
 40
0.4499999880790712
  9
$DIMCEN
 40
0.09
  9
$DIMTSZ
 40
0.0
  9
$DIMTOL
 70
     0
  9
$DIMLIM
 70
     0
  9
$DIMTIH
 70
     1
  9
$DIMTOH
 70
     1
  9
$DIMSE1
 70
     0
  9
$DIMSE2
 70
     0
  9
$DIMTAD
 70
     0
  9
$DIMZIN
 70
     0
  9
$DIMBLK
  1

  9
$DIMASO
 70
     1
  9
$DIMSHO
 70
     1
  9
$DIMPOST
  1

  9
$DIMAPOST
  1

  9
$DIMALT
 70
     0
  9
$DIMALTD
 70
     2
  9
$DIMALTF
 40
25.4
  9
$DIMLFAC
 40
1.0
  9
$DIMTOFL
 70
     0
  9
$DIMTVP
 40
0.0
  9
$DIMTIX
 70
     0
  9
$DIMSOXD
 70
     0
  9
$DIMSAH
 70
     0
  9
$DIMBLK1
  1

  9
$DIMBLK2
  1

  9
$DIMSTYLE
  2
Standard
  9
$DIMCLRD
 70
     0
  9
$DIMCLRE
 70
     0
  9
$DIMCLRT
 70
     0
  9
$DIMTFAC
 40
1.0
  9
$DIMGAP
 40
0.09
  9
$DIMJUST
 70
     0
  9
$DIMSD1
 70
     0
  9
$DIMSD2
 70
     0
  9
$DIMTOLJ
 70
     1
  9
$DIMTZIN
 70
     0
  9
$DIMALTZ
 70
     0
  9
$DIMALTTZ
 70
     0
  9
$DIMUPT
 70
     0
  9
$DIMDEC
 70
     4
  9
$DIMTDEC
 70
     4
  9
$DIMALTU
 70
     2
  9
$DIMALTTD
 70
     2
  9
$DIMTXSTY
  7
Standard
  9
$DIMAUNIT
 70
     0
  9
$DIMADEC
 70
     0
  9
$DIMALTRND
 40
0.0
  9
$DIMAZIN
 70
     0
  9
$DIMDSEP
 70
    46
  9
$DIMATFIT
 70
     3
  9
$DIMFRAC
 70
     0
  9
$DIMLDRBLK
  1

  9
$DIMLUNIT
 70
     2
  9
$DIMLWD
 70
    -2
  9
$DIMLWE
 70
    -2
  9
$DIMTMOVE
 70
     0
  9
$DIMFXL
 40
1.0
  9
$DIMFXLON
 70
     0
  9
$DIMJOGANG
 40
0.7853981633974483
  9
$DIMTFILL
 70
     0
  9
$DIMTFILLCLR
 70
     0
  9
$DIMARCSYM
 70
     0
  9
$DIMLTYPE
  6

  9
$DIMLTEX1
  6

  9
$DIMLTEX2
  6

  9
$DIMTXTDIRECTION
 70
     0
  9
$LUNITS
 70
     2
  9
$LUPREC
 70
     4
  9
$SKETCHINC
 40
0.1
  9
$FILLETRAD
 40
0.0
  9
$AUNITS
 70
     0
  9
$AUPREC
 70
     0
  9
$MENU
  1
.
  9
$ELEVATION
 40
0.0
  9
$PELEVATION
 40
0.0
  9
$THICKNESS
 40
0.0
  9
$LIMCHECK
 70
     0
  9
$CHAMFERA
 40
0.0
  9
$CHAMFERB
 40
0.0
  9
$CHAMFERC
 40
0.0
  9
$CHAMFERD
 40
0.0
  9
$SKPOLY
 70
     0
  9
$TDCREATE
 40
2458176.495925926
  9
$TDUCREATE
 40
2458176.120925926
  9
$TDUPDATE
 40
2458176.496331019
  9
$TDUUPDATE
 40
2458176.121331018
  9
$TDINDWG
 40
0.0003009259
  9
$TDUSRTIMER
 40
0.0003009259
  9
$USRTIMER
 70
     1
  9
$ANGBASE
 50
0.0
  9
$ANGDIR
 70
     0
  9
$PDMODE
 70
     0
  9
$PDSIZE
 40
0.0
  9
$PLINEWID
 40
0.0
  9
$SPLFRAME
 70
     0
  9
$SPLINETYPE
 70
     6
  9
$SPLINESEGS
 70
     8
  9
$HANDSEED
  5
529
  9
$SURFTAB1
 70
     6
  9
$SURFTAB2
 70
     6
  9
$SURFTYPE
 70
     6
  9
$SURFU
 70
     6
  9
$SURFV
 70
     6
  9
$UCSBASE
  2

  9
$UCSNAME
  2

  9
$UCSORG
 10
0.0
 20
0.0
 30
0.0
  9
$UCSXDIR
 10
1.0
 20
0.0
 30
0.0
  9
$UCSYDIR
 10
0.0
 20
1.0
 30
0.0
  9
$UCSORTHOREF
  2

  9
$UCSORTHOVIEW
 70
     0
  9
$UCSORGTOP
 10
0.0
 20
0.0
 30
0.0
  9
$UCSORGBOTTOM
 10
0.0
 20
0.0
 30
0.0
  9
$UCSORGLEFT
 10
0.0
 20
0.0
 30
0.0
  9
$UCSORGRIGHT
 10
0.0
 20
0.0
 30
0.0
  9
$UCSORGFRONT
 10
0.0
 20
0.0
 30
0.0
  9
$UCSORGBACK
 10
0.0
 20
0.0
 30
0.0
  9
$PUCSBASE
  2

  9
$PUCSNAME
  2

  9
$PUCSORG
 10
0.0
 20
0.0
 30
0.0
  9
$PUCSXDIR
 10
1.0
 20
0.0
 30
0.0
  9
$PUCSYDIR
 10
0.0
 20
1.0
 30
0.0
  9
$PUCSORTHOREF
  2

  9
$PUCSORTHOVIEW
 70
     0
  9
$PUCSORGTOP
 10
0.0
 20
0.0
 30
0.0
  9
$PUCSORGBOTTOM
 10
0.0
 20
0.0
 30
0.0
  9
$PUCSORGLEFT
 10
0.0
 20
0.0
 30
0.0
  9
$PUCSORGRIGHT
 10
0.0
 20
0.0
 30
0.0
  9
$PUCSORGFRONT
 10
0.0
 20
0.0
 30
0.0
  9
$PUCSORGBACK
 10
0.0
 20
0.0
 30
0.0
  9
$USERI1
 70
     0
  9
$USERI2
 70
     0
  9
$USERI3
 70
     0
  9
$USERI4
 70
     0
  9
$USERI5
 70
     0
  9
$USERR1
 40
0.0
  9
$USERR2
 40
0.0
  9
$USERR3
 40
0.0
  9
$USERR4
 40
0.0
  9
$USERR5
 40
0.0
  9
$WORLDVIEW
 70
     1
  9
$SHADEDGE
 70
     3
  9
$SHADEDIF
 70
    70
  9
$TILEMODE
 70
     1
  9
$MAXACTVP
 70
    64
  9
$PINSBASE
 10
0.0
 20
0.0
 30
0.0
  9
$PLIMCHECK
 70
     0
  9
$PEXTMIN
 10
0.0
 20
0.0
 30
0.0
  9
$PEXTMAX
 10
420.0
 20
297.0
 30
0.0
  9
$PLIMMIN
 10
0.0
 20
0.0
  9
$PLIMMAX
 10
420.0
 20
297.0
  9
$UNITMODE
 70
     0
  9
$VISRETAIN
 70
     1
  9
$PLINEGEN
 70
     0
  9
$PSLTSCALE
 70
     1
  9
$TREEDEPTH
 70
  3020
  9
$CMLSTYLE
  2
Standard
  9
$CMLJUST
 70
     0
  9
$CMLSCALE
 40
1.0
  9
$PROXYGRAPHICS
 70
     1
  9
$MEASUREMENT
 70
     1
  9
$CELWEIGHT
370
    -1
  9
$ENDCAPS
280
     0
  9
$JOINSTYLE
280
     0
  9
$LWDISPLAY
290
     0
  9
$INSUNITS
 70
     4
  9
$HYPERLINKBASE
  1

  9
$STYLESHEET
  1

  9
$XEDIT
290
     1
  9
$CEPSNTYPE
380
     0
  9
$PSTYLEMODE
290
     1
  9
$FINGERPRINTGUID
  2
{4B339F98-076A-C546-B7F4-DE60410C10F8}
  9
$VERSIONGUID
  2
{74540690-90A0-8D4C-9A75-FF23A45C69E5}
  9
$EXTNAMES
290
     1
  9
$PSVPSCALE
 40
0.0
  9
$OLESTARTUP
290
     0
  9
$SORTENTS
280
   127
  9
$INDEXCTL
280
     0
  9
$HIDETEXT
280
     1
  9
$XCLIPFRAME
280
     2
  9
$HALOGAP
280
     0
  9
$OBSCOLOR
 70
   257
  9
$OBSLTYPE
280
     0
  9
$INTERSECTIONDISPLAY
280
     0
  9
$INTERSECTIONCOLOR
 70
   257
  9
$DIMASSOC
280
     1
  9
$PROJECTNAME
  1

  9
$CAMERADISPLAY
290
     0
  9
$LENSLENGTH
 40
50.0
  9
$CAMERAHEIGHT
 40
0.0
  9
$STEPSPERSEC
 40
2.0
  9
$STEPSIZE
 40
6.0
  9
$3DDWFPREC
 40
2.0
  9
$PSOLWIDTH
 40
0.25
  9
$PSOLHEIGHT
 40
4.0
  9
$LOFTANG1
 40
1.570796326794896
  9
$LOFTANG2
 40
1.570796326794896
  9
$LOFTMAG1
 40
0.0
  9
$LOFTMAG2
 40
0.0
  9
$LOFTPARAM
 70
     7
  9
$LOFTNORMALS
280
     1
  9
$LATITUDE
 40
37.795
  9
$LONGITUDE
 40
-122.394
  9
$NORTHDIRECTION
 40
0.0
  9
$TIMEZONE
 70
 -8000
  9
$LIGHTGLYPHDISPLAY
280
     1
  9
$TILEMODELIGHTSYNCH
280
     1
  9
$CMATERIAL
347
11
  9
$SOLIDHIST
280
     0
  9
$SHOWHIST
280
     1
  9
$DWFFRAME
280
     2
  9
$DGNFRAME
280
     0
  9
$REALWORLDSCALE
290
     1
  9
$INTERFERECOLOR
 62
     1
  9
$INTERFEREOBJVS
345
33
  9
$INTERFEREVPVS
346
30
  9
$CSHADOW
280
     0
  9
$SHADOWPLANELOCATION
 40
0.0
  0
ENDSEC
  0
SECTION
  2
CLASSES
  0
CLASS
  1
ACDBDICTIONARYWDFLT
  2
AcDbDictionaryWithDefault
  3
ObjectDBX Classes
 90
        0
 91
        1
280
     0
281
     0
  0
CLASS
  1
MATERIAL
  2
AcDbMaterial
  3
ObjectDBX Classes
 90
     1153
 91
        3
280
     0
281
     0
  0
CLASS
  1
VISUALSTYLE
  2
AcDbVisualStyle
  3
ObjectDBX Classes
 90
     4095
 91
       24
280
     0
281
     0
  0
CLASS
  1
SCALE
  2
AcDbScale
  3
ObjectDBX Classes
 90
     1153
 91
       17
280
     0
281
     0
  0
CLASS
  1
TABLESTYLE
  2
AcDbTableStyle
  3
ObjectDBX Classes
 90
     4095
 91
        1
280
     0
281
     0
  0
CLASS
  1
MLEADERSTYLE
  2
AcDbMLeaderStyle
  3
ACDB_MLEADERSTYLE_CLASS
 90
     4095
 91
        1
280
     0
281
     0
  0
CLASS
  1
ACDBSECTIONVIEWSTYLE
  2
AcDbSectionViewStyle
  3
ObjectDBX Classes
 90
     1025
 91
        2
280
     0
281
     0
  0
CLASS
  1
ACDBDETAILVIEWSTYLE
  2
AcDbDetailViewStyle
  3
ObjectDBX Classes
 90
     1025
 91
        2
280
     0
281
     0
  0
CLASS
  1
DICTIONARYVAR
  2
AcDbDictionaryVar
  3
ObjectDBX Classes
 90
        0
 91
        5
280
     0
281
     0
  0
CLASS
  1
CELLSTYLEMAP
  2
AcDbCellStyleMap
  3
ObjectDBX Classes
 90
     1152
 91
        2
280
     0
281
     0
  0
CLASS
  1
EXACXREFPANELOBJECT
  2
ExAcXREFPanelObject
  3
EXAC_ESW
 90
     1025
 91
        1
280
     0
281
     0
  0
CLASS
  1
NPOCOLLECTION
  2
AcDbImpNonPersistentObjectsCollection
  3
ObjectDBX Classes
 90
     1153
 91
        1
280
     0
281
     0
  0
ENDSEC
  0
SECTION
  2
TABLES
  0
TABLE
  2
VPORT
  5
8
330
0
100
AcDbSymbolTable
 70
     1
1001
ACAD
1000
DbSaveVer
1071
        5
  0
VPORT
  5
57
330
8
100
AcDbSymbolTableRecord
100
AcDbViewportTableRecord
  2
*Active
 70
     0
 10
0.0
 20
0.0
 11
1.0
 21
1.0
 12
196.9074229095762
 22
152.2885708781318
 13
0.0
 23
0.0
 14
1.0
 24
1.0
 15
0.0
 25
0.0
 16
0.0
 26
0.0
 36
1.0
 17
0.0
 27
0.0
 37
0.0
 40
179.6411133926751
 41
2.382685069008783
 42
50.0
 43
0.0
 44
0.0
 50
0.0
 51
0.0
 71
     0
 72
   100
 73
     1
 74
     1
 75
     0
 76
     0
 77
     0
 78
     0
281
     0
 65
     1
110
0.0
120
0.0
130
0.0
111
1.0
121
0.0
131
0.0
112
0.0
122
1.0
132
0.0
 79
     0
146
0.0
348
2F
 60
     3
 61
     5
292
     1
282
     1
141
0.0
142
0.0
 63
   250
421
  3355443
1001
ACAD_NAV_VCDISPLAY
1070
     3
  0
ENDTAB
  0
TABLE
  2
LTYPE
  5
5
330
0
100
AcDbSymbolTable
 70
    58
  0
LTYPE
  5
5B
330
5
100
AcDbSymbolTableRecord
100
AcDbLinetypeTableRecord
  2
ByBlock
 70
     0
  3

 72
    65
 73
     0
 40
0.0
  0
LTYPE
  5
5C
330
5
100
AcDbSymbolTableRecord
100
AcDbLinetypeTableRecord
  2
ByLayer
 70
     0
  3

 72
    65
 73
     0
 40
0.0
  0
LTYPE
  5
5D
330
5
100
AcDbSymbolTableRecord
100
AcDbLinetypeTableRecord
  2
Continuous
 70
     0
  3
Solid line
 72
    65
 73
     0
 40
0.0
  0
LTYPE
  5
78
330
5
100
AcDbSymbolTableRecord
100
AcDbLinetypeTableRecord
  2
CHAIN
 70
     0
  3
Chain ____ _ ____ _ ____ _ ____ _ ____ _ ____
 72
    65
 73
     4
 40
0.3543
 49
0.2362
 74
     0
 49
-0.0295
 74
     0
 49
0.0591
 74
     0
 49
-0.0295
 74
     0
  0
LTYPE
  5
79
330
5
100
AcDbSymbolTableRecord
100
AcDbLinetypeTableRecord
  2
DASH_DOT
 70
     0
  3
Dash dot __ . __ . __ . __ . __ . __ . __ . __
 72
    65
 73
     4
 40
0.37
 49
0.24
 74
     0
 49
-0.06
 74
     0
 49
0.01
 74
     0
 49
-0.06
 74
     0
  0
LTYPE
  5
7A
330
5
100
AcDbSymbolTableRecord
100
AcDbLinetypeTableRecord
  2
DASH_DOUBLE_DOT
 70
     0
  3
Dash Double-Dot __ . . __ . . __ . . __ . .
 72
    65
 73
     6
 40
0.4398000000000001
 49
0.24
 74
     0
 49
-0.06
 74
     0
 49
0.0098
 74
     0
 49
-0.06
 74
     0
 49
0.01
 74
     0
 49
-0.06
 74
     0
  0
LTYPE
  5
7B
330
5
100
AcDbSymbolTableRecord
100
AcDbLinetypeTableRecord
  2
DASH_TRIPLE_DOT
 70
     0
  3
Dash Triple-Dot _ . . . _ . . . _ . . . _
 72
    65
 73
     8
 40
0.51
 49
0.24
 74
     0
 49
-0.06
 74
     0
 49
0.01
 74
     0
 49
-0.06
 74
     0
 49
0.01
 74
     0
 49
-0.06
 74
     0
 49
0.01
 74
     0
 49
-0.06
 74
     0
  0
LTYPE
  5
7C
330
5
100
AcDbSymbolTableRecord
100
AcDbLinetypeTableRecord
  2
DASHED
 70
     0
  3
Dashed __ __ __ __ __ __ __ __ __ __ __ __ __ _
 72
    65
 73
     2
 40
0.2067
 49
0.1654
 74
     0
 49
-0.0413
 74
     0
  0
LTYPE
  5
7D
330
5
100
AcDbSymbolTableRecord
100
AcDbLinetypeTableRecord
  2
DASHED_SPACE
 70
     0
  3
Dashed Space __ __ __ __ __ __ __ __ __ __ __ _
 72
    65
 73
     2
 40
0.0826
 49
0.0413
 74
     0
 49
-0.0413
 74
     0
  0
LTYPE
  5
7E
330
5
100
AcDbSymbolTableRecord
100
AcDbLinetypeTableRecord
  2
DOTTED
 70
     0
  3
Dotted . . . . . . . . . . . . . . . . . . . . 
 72
    65
 73
     2
 40
0.0482
 49
0.0069
 74
     0
 49
-0.0413
 74
     0
  0
LTYPE
  5
7F
330
5
100
AcDbSymbolTableRecord
100
AcDbLinetypeTableRecord
  2
DOUBLE_DASH_CHAIN
 70
     0
  3
Double Dash Chain ___ _ _ ___ _ _ ___ _ _ ___ _
 72
    65
 73
     6
 40
1.240299999999998
 49
0.6614
 74
     0
 49
-0.0827
 74
     0
 49
0.1654
 74
     0
 49
-0.0827
 74
     0
 49
0.1654
 74
     0
 49
-0.0827
 74
     0
  0
LTYPE
  5
80
330
5
100
AcDbSymbolTableRecord
100
AcDbLinetypeTableRecord
  2
DOUBLE_DASH_DOT
 70
     0
  3
Double Dash Dot __ __ . __ __ . __ __ . __ _
 72
    65
 73
     6
 40
0.6700000000000001
 49
0.24
 74
     0
 49
-0.06
 74
     0
 49
0.24
 74
     0
 49
-0.06
 74
     0
 49
0.01
 74
     0
 49
-0.06
 74
     0
  0
LTYPE
  5
81
330
5
100
AcDbSymbolTableRecord
100
AcDbLinetypeTableRecord
  2
DOUBLE_DASH_DOUBLE_DOT
 70
     0
  3
Double-dash double-dot _ _ . . _ _ . . _
 72
    65
 73
     8
 40
0.7400000000000002
 49
0.24
 74
     0
 49
-0.06
 74
     0
 49
0.24
 74
     0
 49
-0.06
 74
     0
 49
0.01
 74
     0
 49
-0.06
 74
     0
 49
0.01
 74
     0
 49
-0.06
 74
     0
  0
LTYPE
  5
82
330
5
100
AcDbSymbolTableRecord
100
AcDbLinetypeTableRecord
  2
DOUBLE_DASH_TRIPLE_DOT
 70
     0
  3
Double Dash Triple Dot __ __ . . . __ __ . . .
 72
    65
 73
    10
 40
0.8100000000000001
 49
0.24
 74
     0
 49
-0.06
 74
     0
 49
0.24
 74
     0
 49
-0.06
 74
     0
 49
0.01
 74
     0
 49
-0.06
 74
     0
 49
0.01
 74
     0
 49
-0.06
 74
     0
 49
0.01
 74
     0
 49
-0.06
 74
     0
  0
LTYPE
  5
83
330
5
100
AcDbSymbolTableRecord
100
AcDbLinetypeTableRecord
  2
LONG_DASH_DOTTED
 70
     0
  3
Long Dash Dotted ____ . ____ . ____ . ____ . _
 72
    65
 73
     4
 40
0.61
 49
0.48
 74
     0
 49
-0.06
 74
     0
 49
0.01
 74
     0
 49
-0.06
 74
     0
  0
LTYPE
  5
84
330
5
100
AcDbSymbolTableRecord
100
AcDbLinetypeTableRecord
  2
LONG_DASH_DOUBLE_DOT
 70
     0
  3
Long Dash Double Dot ____ . . ____ . . ____ . .
 72
    65
 73
     6
 40
0.3345
 49
0.2362
 74
     0
 49
-0.0295
 74
     0
 49
0.0049
 74
     0
 49
-0.0295
 74
     0
 49
0.0049
 74
     0
 49
-0.0295
 74
     0
  0
LTYPE
  5
85
330
5
100
AcDbSymbolTableRecord
100
AcDbLinetypeTableRecord
  2
LONG_DASH_TRIPLE_DOT
 70
     0
  3
Long Dash Triple Dot ____ ... ____ ... ____
 72
    65
 73
     8
 40
0.75
 49
0.48
 74
     0
 49
-0.06
 74
     0
 49
0.01
 74
     0
 49
-0.06
 74
     0
 49
0.01
 74
     0
 49
-0.06
 74
     0
 49
0.01
 74
     0
 49
-0.06
 74
     0
  0
LTYPE
  5
86
330
5
100
AcDbSymbolTableRecord
100
AcDbLinetypeTableRecord
  2
BORDER
 70
     0
  3
Border __ __ . __ __ . __ __ . __ __ . __ __ .
 72
    65
 73
     6
 40
44.45
 49
12.7
 74
     0
 49
-6.349999999999998
 74
     0
 49
12.7
 74
     0
 49
-6.349999999999998
 74
     0
 49
0.0
 74
     0
 49
-6.349999999999998
 74
     0
  0
LTYPE
  5
87
330
5
100
AcDbSymbolTableRecord
100
AcDbLinetypeTableRecord
  2
BORDER2
 70
     0
  3
Border (.5x) __.__.__.__.__.__.__.__.__.__.__.
 72
    65
 73
     6
 40
22.225
 49
6.349999999999998
 74
     0
 49
-3.174999999999998
 74
     0
 49
6.349999999999998
 74
     0
 49
-3.174999999999998
 74
     0
 49
0.0
 74
     0
 49
-3.174999999999998
 74
     0
  0
LTYPE
  5
88
330
5
100
AcDbSymbolTableRecord
100
AcDbLinetypeTableRecord
  2
BORDERX2
 70
     0
  3
Border (2x) ____  ____  .  ____  ____  .  ___
 72
    65
 73
     6
 40
88.9
 49
25.4
 74
     0
 49
-12.7
 74
     0
 49
25.4
 74
     0
 49
-12.7
 74
     0
 49
0.0
 74
     0
 49
-12.7
 74
     0
  0
LTYPE
  5
89
330
5
100
AcDbSymbolTableRecord
100
AcDbLinetypeTableRecord
  2
CENTER
 70
     0
  3
Center ____ _ ____ _ ____ _ ____ _ ____ _ ____
 72
    65
 73
     4
 40
50.8
 49
31.75
 74
     0
 49
-6.349999999999998
 74
     0
 49
6.349999999999998
 74
     0
 49
-6.349999999999998
 74
     0
  0
LTYPE
  5
8A
330
5
100
AcDbSymbolTableRecord
100
AcDbLinetypeTableRecord
  2
CENTER2
 70
     0
  3
Center (.5x) ___ _ ___ _ ___ _ ___ _ ___ _ ___
 72
    65
 73
     4
 40
28.575
 49
19.05
 74
     0
 49
-3.174999999999998
 74
     0
 49
3.174999999999998
 74
     0
 49
-3.174999999999998
 74
     0
  0
LTYPE
  5
8B
330
5
100
AcDbSymbolTableRecord
100
AcDbLinetypeTableRecord
  2
CENTERX2
 70
     0
  3
Center (2x) ________  __  ________  __  _____
 72
    65
 73
     4
 40
101.6
 49
63.5
 74
     0
 49
-12.7
 74
     0
 49
12.7
 74
     0
 49
-12.7
 74
     0
  0
LTYPE
  5
8C
330
5
100
AcDbSymbolTableRecord
100
AcDbLinetypeTableRecord
  2
DASHDOT
 70
     0
  3
Dash dot __ . __ . __ . __ . __ . __ . __ . __
 72
    65
 73
     4
 40
25.4
 49
12.7
 74
     0
 49
-6.349999999999998
 74
     0
 49
0.0
 74
     0
 49
-6.349999999999998
 74
     0
  0
LTYPE
  5
8D
330
5
100
AcDbSymbolTableRecord
100
AcDbLinetypeTableRecord
  2
DASHDOT2
 70
     0
  3
Dash dot (.5x) _._._._._._._._._._._._._._._.
 72
    65
 73
     4
 40
12.7
 49
6.349999999999998
 74
     0
 49
-3.174999999999998
 74
     0
 49
0.0
 74
     0
 49
-3.174999999999998
 74
     0
  0
LTYPE
  5
8E
330
5
100
AcDbSymbolTableRecord
100
AcDbLinetypeTableRecord
  2
DASHDOTX2
 70
     0
  3
Dash dot (2x) ____  .  ____  .  ____  .  ___
 72
    65
 73
     4
 40
50.8
 49
25.4
 74
     0
 49
-12.7
 74
     0
 49
0.0
 74
     0
 49
-12.7
 74
     0
  0
LTYPE
  5
8F
330
5
100
AcDbSymbolTableRecord
100
AcDbLinetypeTableRecord
  2
DASHED2
 70
     0
  3
Dashed (.5x) _ _ _ _ _ _ _ _ _ _ _ _ _ _ _ _ _
 72
    65
 73
     2
 40
9.524999999999996
 49
6.349999999999998
 74
     0
 49
-3.174999999999998
 74
     0
  0
LTYPE
  5
90
330
5
100
AcDbSymbolTableRecord
100
AcDbLinetypeTableRecord
  2
DASHEDX2
 70
     0
  3
Dashed (2x) ____  ____  ____  ____  ____  ___
 72
    65
 73
     2
 40
38.1
 49
25.4
 74
     0
 49
-12.7
 74
     0
  0
LTYPE
  5
91
330
5
100
AcDbSymbolTableRecord
100
AcDbLinetypeTableRecord
  2
DIVIDE
 70
     0
  3
Divide ____ . . ____ . . ____ . . ____ . . ____
 72
    65
 73
     6
 40
31.75
 49
12.7
 74
     0
 49
-6.349999999999998
 74
     0
 49
0.0
 74
     0
 49
-6.349999999999998
 74
     0
 49
0.0
 74
     0
 49
-6.349999999999998
 74
     0
  0
LTYPE
  5
92
330
5
100
AcDbSymbolTableRecord
100
AcDbLinetypeTableRecord
  2
DIVIDE2
 70
     0
  3
Divide (.5x) __..__..__..__..__..__..__..__.._
 72
    65
 73
     6
 40
15.875
 49
6.349999999999998
 74
     0
 49
-3.174999999999998
 74
     0
 49
0.0
 74
     0
 49
-3.174999999999998
 74
     0
 49
0.0
 74
     0
 49
-3.174999999999998
 74
     0
  0
LTYPE
  5
93
330
5
100
AcDbSymbolTableRecord
100
AcDbLinetypeTableRecord
  2
DIVIDEX2
 70
     0
  3
Divide (2x) ________  .  .  ________  .  .  _
 72
    65
 73
     6
 40
63.49999999999999
 49
25.4
 74
     0
 49
-12.7
 74
     0
 49
0.0
 74
     0
 49
-12.7
 74
     0
 49
0.0
 74
     0
 49
-12.7
 74
     0
  0
LTYPE
  5
94
330
5
100
AcDbSymbolTableRecord
100
AcDbLinetypeTableRecord
  2
DOT2
 70
     0
  3
Dot (.5x) .....................................
 72
    65
 73
     2
 40
3.174999999999998
 49
0.0
 74
     0
 49
-3.174999999999998
 74
     0
  0
LTYPE
  5
95
330
5
100
AcDbSymbolTableRecord
100
AcDbLinetypeTableRecord
  2
DOTX2
 70
     0
  3
Dot (2x) .  .  .  .  .  .  .  .  .  .  .  .  . 
 72
    65
 73
     2
 40
12.7
 49
0.0
 74
     0
 49
-12.7
 74
     0
  0
LTYPE
  5
96
330
5
100
AcDbSymbolTableRecord
100
AcDbLinetypeTableRecord
  2
HIDDEN
 70
     0
  3
Hidden __ __ __ __ __ __ __ __ __ __ __ __ __ _
 72
    65
 73
     2
 40
9.524999999999996
 49
6.349999999999998
 74
     0
 49
-3.174999999999998
 74
     0
  0
LTYPE
  5
97
330
5
100
AcDbSymbolTableRecord
100
AcDbLinetypeTableRecord
  2
HIDDEN2
 70
     0
  3
Hidden (.5x) _ _ _ _ _ _ _ _ _ _ _ _ _ _ _ _ _
 72
    65
 73
     2
 40
4.762499999999998
 49
3.174999999999998
 74
     0
 49
-1.587499999999999
 74
     0
  0
LTYPE
  5
98
330
5
100
AcDbSymbolTableRecord
100
AcDbLinetypeTableRecord
  2
HIDDENX2
 70
     0
  3
Hidden (2x) ____ ____ ____ ____ ____ ____ ____
 72
    65
 73
     2
 40
19.05
 49
12.7
 74
     0
 49
-6.349999999999998
 74
     0
  0
LTYPE
  5
99
330
5
100
AcDbSymbolTableRecord
100
AcDbLinetypeTableRecord
  2
PHANTOM
 70
     0
  3
Phantom ______  __  __  ______  __  __  ______
 72
    65
 73
     6
 40
63.5
 49
31.75
 74
     0
 49
-6.349999999999998
 74
     0
 49
6.349999999999998
 74
     0
 49
-6.349999999999998
 74
     0
 49
6.349999999999998
 74
     0
 49
-6.349999999999998
 74
     0
  0
LTYPE
  5
9A
330
5
100
AcDbSymbolTableRecord
100
AcDbLinetypeTableRecord
  2
PHANTOM2
 70
     0
  3
Phantom (.5x) ___ _ _ ___ _ _ ___ _ _ ___ _ _
 72
    65
 73
     6
 40
31.75
 49
15.875
 74
     0
 49
-3.174999999999998
 74
     0
 49
3.174999999999998
 74
     0
 49
-3.174999999999998
 74
     0
 49
3.174999999999998
 74
     0
 49
-3.174999999999998
 74
     0
  0
LTYPE
  5
9B
330
5
100
AcDbSymbolTableRecord
100
AcDbLinetypeTableRecord
  2
PHANTOMX2
 70
     0
  3
Phantom (2x) ____________    ____    ____   _
 72
    65
 73
     6
 40
127.0
 49
63.5
 74
     0
 49
-12.7
 74
     0
 49
12.7
 74
     0
 49
-12.7
 74
     0
 49
12.7
 74
     0
 49
-12.7
 74
     0
  0
LTYPE
  5
9C
330
5
100
AcDbSymbolTableRecord
100
AcDbLinetypeTableRecord
  2
ACAD_ISO02W100
 70
     0
  3
ISO dash __ __ __ __ __ __ __ __ __ __ __ __ __
 72
    65
 73
     2
 40
15.0
 49
12.0
 74
     0
 49
-3.0
 74
     0
  0
LTYPE
  5
9D
330
5
100
AcDbSymbolTableRecord
100
AcDbLinetypeTableRecord
  2
ACAD_ISO03W100
 70
     0
  3
ISO dash space __    __    __    __    __    __
 72
    65
 73
     2
 40
30.0
 49
12.0
 74
     0
 49
-18.0
 74
     0
  0
LTYPE
  5
9E
330
5
100
AcDbSymbolTableRecord
100
AcDbLinetypeTableRecord
  2
ACAD_ISO04W100
 70
     0
  3
ISO long-dash dot ____ . ____ . ____ . ____ . _
 72
    65
 73
     4
 40
30.0
 49
24.0
 74
     0
 49
-3.0
 74
     0
 49
0.0
 74
     0
 49
-3.0
 74
     0
  0
LTYPE
  5
9F
330
5
100
AcDbSymbolTableRecord
100
AcDbLinetypeTableRecord
  2
ACAD_ISO05W100
 70
     0
  3
ISO long-dash double-dot ____ .. ____ .. ____ .
 72
    65
 73
     6
 40
33.0
 49
24.0
 74
     0
 49
-3.0
 74
     0
 49
0.0
 74
     0
 49
-3.0
 74
     0
 49
0.0
 74
     0
 49
-3.0
 74
     0
  0
LTYPE
  5
A0
330
5
100
AcDbSymbolTableRecord
100
AcDbLinetypeTableRecord
  2
ACAD_ISO06W100
 70
     0
  3
ISO long-dash triple-dot ____ ... ____ ... ____
 72
    65
 73
     8
 40
36.0
 49
24.0
 74
     0
 49
-3.0
 74
     0
 49
0.0
 74
     0
 49
-3.0
 74
     0
 49
0.0
 74
     0
 49
-3.0
 74
     0
 49
0.0
 74
     0
 49
-3.0
 74
     0
  0
LTYPE
  5
A1
330
5
100
AcDbSymbolTableRecord
100
AcDbLinetypeTableRecord
  2
ACAD_ISO07W100
 70
     0
  3
ISO dot . . . . . . . . . . . . . . . . . . . .
 72
    65
 73
     2
 40
3.0
 49
0.0
 74
     0
 49
-3.0
 74
     0
  0
LTYPE
  5
A2
330
5
100
AcDbSymbolTableRecord
100
AcDbLinetypeTableRecord
  2
ACAD_ISO08W100
 70
     0
  3
ISO long-dash short-dash ____ __ ____ __ ____ _
 72
    65
 73
     4
 40
36.0
 49
24.0
 74
     0
 49
-3.0
 74
     0
 49
6.0
 74
     0
 49
-3.0
 74
     0
  0
LTYPE
  5
A3
330
5
100
AcDbSymbolTableRecord
100
AcDbLinetypeTableRecord
  2
ACAD_ISO09W100
 70
     0
  3
ISO long-dash double-short-dash ____ __ __ ____
 72
    65
 73
     6
 40
45.0
 49
24.0
 74
     0
 49
-3.0
 74
     0
 49
6.0
 74
     0
 49
-3.0
 74
     0
 49
6.0
 74
     0
 49
-3.0
 74
     0
  0
LTYPE
  5
A4
330
5
100
AcDbSymbolTableRecord
100
AcDbLinetypeTableRecord
  2
ACAD_ISO10W100
 70
     0
  3
ISO dash dot __ . __ . __ . __ . __ . __ . __ .
 72
    65
 73
     4
 40
18.0
 49
12.0
 74
     0
 49
-3.0
 74
     0
 49
0.0
 74
     0
 49
-3.0
 74
     0
  0
LTYPE
  5
A5
330
5
100
AcDbSymbolTableRecord
100
AcDbLinetypeTableRecord
  2
ACAD_ISO11W100
 70
     0
  3
ISO double-dash dot __ __ . __ __ . __ __ . __ 
 72
    65
 73
     6
 40
33.0
 49
12.0
 74
     0
 49
-3.0
 74
     0
 49
12.0
 74
     0
 49
-3.0
 74
     0
 49
0.0
 74
     0
 49
-3.0
 74
     0
  0
LTYPE
  5
A6
330
5
100
AcDbSymbolTableRecord
100
AcDbLinetypeTableRecord
  2
ACAD_ISO12W100
 70
     0
  3
ISO dash double-dot __ . . __ . . __ . . __ . .
 72
    65
 73
     6
 40
21.0
 49
12.0
 74
     0
 49
-3.0
 74
     0
 49
0.0
 74
     0
 49
-3.0
 74
     0
 49
0.0
 74
     0
 49
-3.0
 74
     0
  0
LTYPE
  5
A7
330
5
100
AcDbSymbolTableRecord
100
AcDbLinetypeTableRecord
  2
ACAD_ISO13W100
 70
     0
  3
ISO double-dash double-dot __ __ . . __ __ . . 
 72
    65
 73
     8
 40
36.0
 49
12.0
 74
     0
 49
-3.0
 74
     0
 49
12.0
 74
     0
 49
-3.0
 74
     0
 49
0.0
 74
     0
 49
-3.0
 74
     0
 49
0.0
 74
     0
 49
-3.0
 74
     0
  0
LTYPE
  5
A8
330
5
100
AcDbSymbolTableRecord
100
AcDbLinetypeTableRecord
  2
ACAD_ISO14W100
 70
     0
  3
ISO dash triple-dot __ . . . __ . . . __ . . . 
 72
    65
 73
     8
 40
24.0
 49
12.0
 74
     0
 49
-3.0
 74
     0
 49
0.0
 74
     0
 49
-3.0
 74
     0
 49
0.0
 74
     0
 49
-3.0
 74
     0
 49
0.0
 74
     0
 49
-3.0
 74
     0
  0
LTYPE
  5
A9
330
5
100
AcDbSymbolTableRecord
100
AcDbLinetypeTableRecord
  2
ACAD_ISO15W100
 70
     0
  3
ISO double-dash triple-dot __ __ . . . __ __ . 
 72
    65
 73
    10
 40
39.0
 49
12.0
 74
     0
 49
-3.0
 74
     0
 49
12.0
 74
     0
 49
-3.0
 74
     0
 49
0.0
 74
     0
 49
-3.0
 74
     0
 49
0.0
 74
     0
 49
-3.0
 74
     0
 49
0.0
 74
     0
 49
-3.0
 74
     0
  0
LTYPE
  5
AC
330
5
100
AcDbSymbolTableRecord
100
AcDbLinetypeTableRecord
  2
FENCELINE1
 70
     0
  3
Fenceline circle ----0-----0----0-----0----0---
 72
    65
 73
     4
 40
36.83
 49
6.349999999999998
 74
     0
 49
-2.54
 74
     4
 75
   133
340
AB
 46
2.54
 50
0.0
 44
-2.54
 45
0.0
 49
-2.54
 74
     0
 49
25.4
 74
     0
  0
LTYPE
  5
AD
330
5
100
AcDbSymbolTableRecord
100
AcDbLinetypeTableRecord
  2
FENCELINE2
 70
     0
  3
Fenceline square ----[]-----[]----[]-----[]----
 72
    65
 73
     4
 40
36.83
 49
6.349999999999998
 74
     0
 49
-2.54
 74
     4
 75
   132
340
AB
 46
2.54
 50
0.0
 44
-2.54
 45
0.0
 49
-2.54
 74
     0
 49
25.4
 74
     0
  0
LTYPE
  5
AE
330
5
100
AcDbSymbolTableRecord
100
AcDbLinetypeTableRecord
  2
TRACKS
 70
     0
  3
Tracks -|-|-|-|-|-|-|-|-|-|-|-|-|-|-|-|-|-|-|-|
 72
    65
 73
     2
 40
7.62
 49
3.81
 74
     4
 75
   130
340
AB
 46
6.349999999999998
 50
0.0
 44
0.0
 45
0.0
 49
3.81
 74
     0
  0
LTYPE
  5
AF
330
5
100
AcDbSymbolTableRecord
100
AcDbLinetypeTableRecord
  2
BATTING
 70
     0
  3
Batting SSSSSSSSSSSSSSSSSSSSSSSSSSSSSSSSSSSSSSS
 72
    65
 73
     4
 40
10.16254
 49
0.00254
 74
     0
 49
-2.54
 74
     4
 75
   134
340
AB
 46
2.54
 50
0.0
 44
-2.54
 45
0.0
 49
-5.08
 74
     4
 75
   134
340
AB
 46
2.54
 50
180.0
 44
2.54
 45
0.0
 49
-2.54
 74
     0
  0
LTYPE
  5
B0
330
5
100
AcDbSymbolTableRecord
100
AcDbLinetypeTableRecord
  2
HOT_WATER_SUPPLY
 70
     0
  3
Hot water supply ---- HW ---- HW ---- HW ----
 72
    65
 73
     3
 40
22.86
 49
12.7
 74
     0
 49
-5.08
 74
     2
 75
     0
340
55
 46
2.54
 50
0.0
 44
-2.54
 45
-1.27
  9
HW
 49
-5.08
 74
     0
  0
LTYPE
  5
B1
330
5
100
AcDbSymbolTableRecord
100
AcDbLinetypeTableRecord
  2
GAS_LINE
 70
     0
  3
Gas line ----GAS----GAS----GAS----GAS----GAS---
 72
    65
 73
     3
 40
24.13
 49
12.7
 74
     0
 49
-5.08
 74
     2
 75
     0
340
55
 46
2.54
 50
0.0
 44
-2.54
 45
-1.27
  9
GAS
 49
-6.349999999999998
 74
     0
  0
LTYPE
  5
B2
330
5
100
AcDbSymbolTableRecord
100
AcDbLinetypeTableRecord
  2
ZIGZAG
 70
     0
  3
Zig zag /\/\/\/\/\/\/\/\/\/\/\/\/\/\/\/\/\/\/\/
 72
    65
 73
     4
 40
20.32254
 49
0.00254
 74
     0
 49
-5.08
 74
     4
 75
   131
340
AB
 46
5.08
 50
0.0
 44
-5.08
 45
0.0
 49
-10.16
 74
     4
 75
   131
340
AB
 46
5.08
 50
180.0
 44
5.08
 45
0.0
 49
-5.08
 74
     0
  0
ENDTAB
  0
TABLE
  2
LAYER
  5
2
330
0
100
AcDbSymbolTable
 70
     9
  0
LAYER
  5
54
330
2
100
AcDbSymbolTableRecord
100
AcDbLayerTableRecord
  2
0
 70
     0
 62
     7
  6
Continuous
370
    25
390
F
347
21
348
0
  0
LAYER
  5
B8
330
2
100
AcDbSymbolTableRecord
100
AcDbLayerTableRecord
  2
Center Mark (ISO)
 70
     0
 62
     7
  6
Continuous
370
    25
390
F
347
21
348
0
  0
LAYER
  5
B9
330
2
100
AcDbSymbolTableRecord
100
AcDbLayerTableRecord
  2
Centerline (ISO)
 70
     0
 62
     7
  6
Continuous
370
    25
390
F
347
21
348
0
  0
LAYER
  5
BB
330
2
100
AcDbSymbolTableRecord
100
AcDbLayerTableRecord
  2
Dimension (ISO)
 70
     0
 62
     7
  6
Continuous
370
    25
390
F
347
21
348
0
  0
LAYER
  5
BD
330
2
100
AcDbSymbolTableRecord
100
AcDbLayerTableRecord
  2
Hidden (ISO)
 70
     0
 62
     7
  6
DASHED
370
    35
390
F
347
21
348
0
  0
LAYER
  5
C3
330
2
100
AcDbSymbolTableRecord
100
AcDbLayerTableRecord
  2
Symbol (ISO)
 70
     0
 62
     7
  6
Continuous
370
    25
390
F
347
21
348
0
  0
LAYER
  5
C6
330
2
100
AcDbSymbolTableRecord
100
AcDbLayerTableRecord
  2
Visible (ISO)
 70
     0
 62
     7
  6
Continuous
370
    50
390
F
347
21
348
0
  0
LAYER
  5
C7
330
2
100
AcDbSymbolTableRecord
100
AcDbLayerTableRecord
  2
Visible Narrow (ISO)
 70
     0
 62
     7
  6
Continuous
370
    35
390
F
347
21
348
0
  0
LAYER
  5
2B1
330
2
100
AcDbSymbolTableRecord
100
AcDbLayerTableRecord
  2
Defpoints
 70
     0
 62
     7
  6
Continuous
290
     0
370
    -3
390
F
347
21
348
0
  0
ENDTAB
  0
TABLE
  2
STYLE
  5
3
330
0
100
AcDbSymbolTable
 70
    17
  0
STYLE
  5
55
330
3
100
AcDbSymbolTableRecord
100
AcDbTextStyleTableRecord
  2
Standard
 70
     0
 40
0.0
 41
1.0
 50
0.0
 71
     0
 42
0.2
  3
tahoma.ttf
  4

1001
ACAD
1000
Tahoma
1071
      256
  0
STYLE
  5
5A
330
3
100
AcDbSymbolTableRecord
100
AcDbTextStyleTableRecord
  2
Annotative
 70
     0
 40
0.0
 41
1.0
 50
0.0
 71
     0
 42
0.2
  3
txt
  4

1001
AcadAnnotative
1000
AnnotativeData
1002
{
1070
     1
1070
     1
1002
}
  0
STYLE
  5
AB
330
3
100
AcDbSymbolTableRecord
100
AcDbTextStyleTableRecord
  2

 70
     1
 40
0.0
 41
1.0
 50
0.0
 71
     0
 42
0.2
  3
ltypeshp.shx
  4

  0
STYLE
  5
CC
330
3
100
AcDbSymbolTableRecord
100
AcDbTextStyleTableRecord
  2
Label Text (JIS)
 70
     0
 40
0.0
 41
1.0
 50
0.0
 71
     0
 42
0.2
  3
tahoma.ttf
  4

1001
ACAD
1000
Tahoma
1071
      256
  0
STYLE
  5
CD
330
3
100
AcDbSymbolTableRecord
100
AcDbTextStyleTableRecord
  2
Note Text (JIS)
 70
     0
 40
0.0
 41
1.0
 50
0.0
 71
     0
 42
0.2
  3
tahoma.ttf
  4

1001
ACAD
1000
Tahoma
1071
      256
  0
STYLE
  5
CE
330
3
100
AcDbSymbolTableRecord
100
AcDbTextStyleTableRecord
  2
Rev用
 70
     0
 40
0.0
 41
1.0
 50
0.0
 71
     0
 42
0.2
  3
tahoma.ttf
  4

1001
ACAD
1000
Tahoma
1071
      256
  0
STYLE
  5
CF
330
3
100
AcDbSymbolTableRecord
100
AcDbTextStyleTableRecord
  2
八興
 70
     0
 40
0.0
 41
1.0
 50
0.0
 71
     0
 42
0.2
  3
tahoma.ttf
  4

1001
ACAD
1000
Tahoma
1071
      256
  0
STYLE
  5
10A
330
3
100
AcDbSymbolTableRecord
100
AcDbTextStyleTableRecord
  2
文字スタイル50
 70
     0
 40
0.0
 41
1.0
 50
0.0
 71
     0
 42
0.2
  3
tahoma.ttf
  4

1001
ACAD
1000
Tahoma
1071
      256
  0
STYLE
  5
11A
330
3
100
AcDbSymbolTableRecord
100
AcDbTextStyleTableRecord
  2
文字スタイル51
 70
     0
 40
0.0
 41
1.0
 50
0.0
 71
     0
 42
0.2
  3
tahoma.ttf
  4

1001
ACAD
1000
Tahoma
1071
      256
  0
STYLE
  5
11C
330
3
100
AcDbSymbolTableRecord
100
AcDbTextStyleTableRecord
  2
文字スタイル47
 70
     0
 40
0.0
 41
1.0
 50
0.0
 71
     0
 42
0.2
  3
tahoma.ttf
  4

1001
ACAD
1000
Tahoma
1071
      256
  0
STYLE
  5
133
330
3
100
AcDbSymbolTableRecord
100
AcDbTextStyleTableRecord
  2
文字スタイル13
 70
     0
 40
0.0
 41
1.0
 50
0.0
 71
     0
 42
0.2
  3
tahoma.ttf
  4

1001
ACAD
1000
Tahoma
1071
      256
  0
STYLE
  5
135
330
3
100
AcDbSymbolTableRecord
100
AcDbTextStyleTableRecord
  2
文字スタイル44
 70
     0
 40
0.0
 41
1.0
 50
0.0
 71
     0
 42
0.2
  3
tahoma.ttf
  4

1001
ACAD
1000
Tahoma
1071
      256
  0
STYLE
  5
137
330
3
100
AcDbSymbolTableRecord
100
AcDbTextStyleTableRecord
  2
文字スタイル48
 70
     0
 40
0.0
 41
1.0
 50
0.0
 71
     0
 42
0.2
  3
tahoma.ttf
  4

1001
ACAD
1000
Tahoma
1071
      256
  0
STYLE
  5
139
330
3
100
AcDbSymbolTableRecord
100
AcDbTextStyleTableRecord
  2
文字スタイル45
 70
     0
 40
0.0
 41
1.0
 50
0.0
 71
     0
 42
0.2
  3
tahoma.ttf
  4

1001
ACAD
1000
Tahoma
1071
      256
  0
STYLE
  5
13D
330
3
100
AcDbSymbolTableRecord
100
AcDbTextStyleTableRecord
  2
文字スタイル46
 70
     0
 40
0.0
 41
1.0
 50
0.0
 71
     0
 42
0.2
  3
tahoma.ttf
  4

1001
ACAD
1000
Tahoma
1071
      256
  0
STYLE
  5
143
330
3
100
AcDbSymbolTableRecord
100
AcDbTextStyleTableRecord
  2
文字スタイル39
 70
     0
 40
0.0
 41
1.0
 50
0.0
 71
     0
 42
0.2
  3
tahoma.ttf
  4

1001
ACAD
1000
Tahoma
1071
      256
  0
STYLE
  5
15B
330
3
100
AcDbSymbolTableRecord
100
AcDbTextStyleTableRecord
  2
文字スタイル49
 70
     0
 40
0.0
 41
1.0
 50
0.0
 71
     0
 42
0.2
  3
tahoma.ttf
  4

1001
ACAD
1000
Tahoma
1071
      256
  0
ENDTAB
  0
TABLE
  2
VIEW
  5
6
330
0
100
AcDbSymbolTable
 70
     0
  0
ENDTAB
  0
TABLE
  2
UCS
  5
7
330
0
100
AcDbSymbolTable
 70
     0
  0
ENDTAB
  0
TABLE
  2
APPID
  5
9
330
0
100
AcDbSymbolTable
 70
     4
  0
APPID
  5
56
330
9
100
AcDbSymbolTableRecord
100
AcDbRegAppTableRecord
  2
ACAD
 70
     0
  0
APPID
  5
5E
330
9
100
AcDbSymbolTableRecord
100
AcDbRegAppTableRecord
  2
AcadAnnotative
 70
     0
  0
APPID
  5
155
330
9
100
AcDbSymbolTableRecord
100
AcDbRegAppTableRecord
  2
AcadAnnoPO
 70
     0
  0
APPID
  5
504
330
9
100
AcDbSymbolTableRecord
100
AcDbRegAppTableRecord
  2
ACAD_NAV_VCDISPLAY
 70
     0
  0
ENDTAB
  0
TABLE
  2
DIMSTYLE
  5
A
330
0
100
AcDbSymbolTable
 70
    18
100
AcDbDimStyleTable
 71
     2
340
D4
340
58
  0
DIMSTYLE
105
58
330
A
100
AcDbSymbolTableRecord
100
AcDbDimStyleTableRecord
  2
Standard
 70
     0
340
55
  0
DIMSTYLE
105
59
330
A
100
AcDbSymbolTableRecord
100
AcDbDimStyleTableRecord
  2
Annotative
 70
     0
340
55
1001
AcadAnnotative
1000
AnnotativeData
1002
{
1070
     1
1070
     1
1002
}
  0
DIMSTYLE
105
D0
330
A
100
AcDbSymbolTableRecord
100
AcDbDimStyleTableRecord
  2
Default - Method 1b (JIS)
 70
     0
 41
2.5
 42
0.0
 43
5.999999999999999
 44
3.174999999999998
 45
0.00000001
 46
10.0
 73
     0
 77
     1
 78
     8
 79
     2
140
4.5
143
0.03937
147
0.8
171
     3
172
     1
176
   256
177
   256
178
   256
271
     2
272
     2
274
     3
284
     8
286
     8
340
CD
371
    -1
372
    -1
  0
DIMSTYLE
105
D1
330
A
100
AcDbSymbolTableRecord
100
AcDbDimStyleTableRecord
  2
Default - Method 1b (JIS)$7
 70
     0
 41
2.5
 42
0.0
 43
5.999999999999999
 44
3.174999999999998
 45
0.00000001
 46
10.0
 73
     0
 77
     1
 78
     8
 79
     2
140
4.5
143
0.03937
147
0.8
171
     3
172
     1
176
   256
177
   256
178
   256
271
     2
272
     2
274
     3
284
     8
286
     8
340
CD
371
    -1
372
    -1
  0
DIMSTYLE
105
D2
330
A
100
AcDbSymbolTableRecord
100
AcDbDimStyleTableRecord
  2
Default - Method 2 (JIS)
 70
     0
 41
2.5
 42
0.0
 43
5.999999999999999
 44
3.174999999999998
 45
0.00000001
 46
10.0
 77
     1
 78
     8
 79
     2
140
4.5
143
0.03937
147
0.8
171
     3
172
     1
176
   256
177
   256
178
   256
271
     2
272
     2
274
     3
284
     8
286
     8
340
CD
371
    -1
372
    -1
  0
DIMSTYLE
105
D3
330
A
100
AcDbSymbolTableRecord
100
AcDbDimStyleTableRecord
  2
Default - Method 2 (JIS)$7
 70
     0
 41
2.5
 42
0.0
 43
5.999999999999999
 44
3.174999999999998
 45
0.00000001
 46
10.0
 77
     1
 78
     8
 79
     2
140
4.5
143
0.03937
147
0.8
171
     3
172
     1
176
   256
177
   256
178
   256
271
     2
272
     2
274
     3
284
     8
286
     8
340
CD
371
    -1
372
    -1
  0
DIMSTYLE
105
D4
102
{ACAD_REACTORS
330
2B0
330
39E
102
}
330
A
100
AcDbSymbolTableRecord
100
AcDbDimStyleTableRecord
  2
Default (JIS)
 70
     0
 41
2.5
 42
0.0
 43
5.999999999999999
 44
1.0
 45
0.00000001
 46
10.0
 73
     0
 74
     0
 77
     1
 78
     8
 79
     2
140
4.5
143
0.03937
146
0.7777777910232544
147
0.8
171
     3
172
     1
176
   256
177
   256
178
   256
271
     2
272
     2
274
     3
340
CD
371
    -1
372
    -1
  0
DIMSTYLE
105
D5
330
A
100
AcDbSymbolTableRecord
100
AcDbDimStyleTableRecord
  2
Default (JIS)$7
 70
     0
 41
2.5
 42
0.0
 43
5.999999999999999
 44
1.0
 45
0.00000001
 46
10.0
 73
     0
 74
     0
 77
     1
 78
     8
 79
     2
140
4.5
143
0.03937
146
0.7777777910232544
147
0.8
171
     3
172
     1
176
   256
177
   256
178
   256
271
     2
272
     2
274
     3
340
CD
371
    -1
372
    -1
  0
DIMSTYLE
105
D6
330
A
100
AcDbSymbolTableRecord
100
AcDbDimStyleTableRecord
  2
Alternate (ISO)
 70
     0
 41
2.5
340
55
  0
DIMSTYLE
105
D7
330
A
100
AcDbSymbolTableRecord
100
AcDbDimStyleTableRecord
  2
AM_ANSI
 70
     0
 41
0.119999997317791
340
55
  0
DIMSTYLE
105
D8
330
A
100
AcDbSymbolTableRecord
100
AcDbDimStyleTableRecord
  2
AM_ANSI$3
 70
     0
 41
0.119999997317791
340
55
  0
DIMSTYLE
105
D9
330
A
100
AcDbSymbolTableRecord
100
AcDbDimStyleTableRecord
  2
AM_ANSI$4
 70
     0
 41
0.119999997317791
340
55
  0
DIMSTYLE
105
DA
330
A
100
AcDbSymbolTableRecord
100
AcDbDimStyleTableRecord
  2
AM_ANSI$7
 70
     0
 41
0.119999997317791
340
55
  0
DIMSTYLE
105
DB
330
A
100
AcDbSymbolTableRecord
100
AcDbDimStyleTableRecord
  2
AM_ANSI$SF
 70
     0
 41
0.119999997317791
340
55
  0
DIMSTYLE
105
DC
330
A
100
AcDbSymbolTableRecord
100
AcDbDimStyleTableRecord
  2
AM_ANSI$SH
 70
     0
 41
0.119999997317791
340
55
  0
DIMSTYLE
105
E8
330
A
100
AcDbSymbolTableRecord
100
AcDbDimStyleTableRecord
  2
Datum (ISO)
 70
     0
 41
2.5
340
55
  0
DIMSTYLE
105
F7
330
A
100
AcDbSymbolTableRecord
100
AcDbDimStyleTableRecord
  2
Large (ISO)
 70
     0
 41
5.0
340
55
  0
DIMSTYLE
105
F8
330
A
100
AcDbSymbolTableRecord
100
AcDbDimStyleTableRecord
  2
ｺﾋﾟｰ - ISO-25
 70
     0
 41
2.5
340
55
  0
ENDTAB
  0
TABLE
  2
BLOCK_RECORD
  5
1
330
0
100
AcDbSymbolTable
 70
     8
  0
BLOCK_RECORD
  5
70
330
1
100
AcDbSymbolTableRecord
100
AcDbBlockTableRecord
  2
*Model_Space
340
73
 70
     0
280
     1
281
     0
  0
BLOCK_RECORD
  5
6C
330
1
100
AcDbSymbolTableRecord
100
AcDbBlockTableRecord
  2
*Paper_Space
340
6F
 70
     0
280
     1
281
     0
  0
BLOCK_RECORD
  5
74
330
1
100
AcDbSymbolTableRecord
100
AcDbBlockTableRecord
  2
*Paper_Space0
340
77
 70
     0
280
     1
281
     0
  0
BLOCK_RECORD
  5
DD
330
1
100
AcDbSymbolTableRecord
100
AcDbBlockTableRecord
  2
DatumFilled45
340
0
 70
     0
280
     1
281
     0
  0
BLOCK_RECORD
  5
E9
330
1
100
AcDbSymbolTableRecord
100
AcDbBlockTableRecord
  2
Filled-1
340
0
 70
     0
280
     1
281
     0
  0
BLOCK_RECORD
  5
F9
330
1
100
AcDbSymbolTableRecord
100
AcDbBlockTableRecord
  2
図面枠 A3
340
0
 70
     0
280
     1
281
     0
  0
BLOCK_RECORD
  5
120
330
1
100
AcDbSymbolTableRecord
100
AcDbBlockTableRecord
  2
表題欄 hakko_表題欄
340
0
 70
     0
280
     1
281
     0
  0
BLOCK_RECORD
  5
176
330
1
100
AcDbSymbolTableRecord
100
AcDbBlockTableRecord
  2
変更履歴
340
0
 70
     0
280
     1
281
     0
  0
BLOCK_RECORD
  5
2B2
330
1
100
AcDbSymbolTableRecord
100
AcDbBlockTableRecord
  2
*D6
340
0
 70
     0
280
     1
281
     0
  0
BLOCK_RECORD
  5
39F
330
1
100
AcDbSymbolTableRecord
100
AcDbBlockTableRecord
  2
*D7
340
0
 70
     0
280
     1
281
     0
  0
ENDTAB
  0
ENDSEC
  0
SECTION
  2
BLOCKS
  0
BLOCK
  5
71
330
70
100
AcDbEntity
  8
0
100
AcDbBlockBegin
  2
*Model_Space
 70
     0
 10
0.0
 20
0.0
 30
0.0
  3
*Model_Space
  1

  0
ENDBLK
  5
72
330
70
100
AcDbEntity
  8
0
100
AcDbBlockEnd
  0
BLOCK
  5
6D
330
6C
100
AcDbEntity
 67
     1
  8
0
100
AcDbBlockBegin
  2
*Paper_Space
 70
     0
 10
0.0
 20
0.0
 30
0.0
  3
*Paper_Space
  1

  0
ENDBLK
  5
6E
330
6C
100
AcDbEntity
 67
     1
  8
0
100
AcDbBlockEnd
  0
BLOCK
  5
75
330
74
100
AcDbEntity
 67
     1
  8
0
100
AcDbBlockBegin
  2
*Paper_Space0
 70
     0
 10
0.0
 20
0.0
 30
0.0
  3
*Paper_Space0
  1

  0
ENDBLK
  5
76
330
74
100
AcDbEntity
 67
     1
  8
0
100
AcDbBlockEnd
  0
BLOCK
  5
DE
330
DD
100
AcDbEntity
  8
0
100
AcDbBlockBegin
  2
DatumFilled45
 70
     0
 10
0.0
 20
0.0
 30
0.0
  3
DatumFilled45
  1

  0
POLYLINE
  5
E0
330
DD
100
AcDbEntity
  8
0
 62
     0
100
AcDb2dPolyline
 66
     1
 10
0.0
 20
0.0
 30
0.0
 70
   128
  0
VERTEX
  5
E1
330
E0
100
AcDbEntity
  8
0
 62
     0
100
AcDbVertex
100
AcDb2dVertex
 10
0.0
 20
1.0
 30
0.0
  0
VERTEX
  5
E2
330
E0
100
AcDbEntity
  8
0
 62
     0
100
AcDbVertex
100
AcDb2dVertex
 10
0.0
 20
-1.0
 30
0.0
  0
VERTEX
  5
E4
330
E0
100
AcDbEntity
  8
0
 62
     0
100
AcDbVertex
100
AcDb2dVertex
 10
-1.0
 20
0.0
 30
0.0
  0
VERTEX
  5
E5
330
E0
100
AcDbEntity
  8
0
 62
     0
100
AcDbVertex
100
AcDb2dVertex
 10
0.0
 20
1.0
 30
0.0
  0
SEQEND
  5
E3
330
E0
100
AcDbEntity
  8
0
 62
     0
  0
SOLID
  5
E7
330
DD
100
AcDbEntity
  8
0
 62
     0
100
AcDbTrace
 10
0.0
 20
1.0
 30
0.0
 11
0.0
 21
-1.0
 31
0.0
 12
-1.0
 22
0.0
 32
0.0
 13
0.0
 23
1.0
 33
0.0
  0
ENDBLK
  5
DF
330
DD
100
AcDbEntity
  8
0
100
AcDbBlockEnd
  0
BLOCK
  5
EA
330
E9
100
AcDbEntity
  8
0
100
AcDbBlockBegin
  2
Filled-1
 70
     0
 10
0.0
 20
0.0
 30
0.0
  3
Filled-1
  1

  0
LINE
  5
EC
330
E9
100
AcDbEntity
  8
0
 62
     0
100
AcDbLine
 10
-1.0
 20
0.0
 30
0.0
 11
0.0
 21
0.0
 31
0.0
  0
POLYLINE
  5
ED
330
E9
100
AcDbEntity
  8
0
 62
     0
100
AcDb2dPolyline
 66
     1
 10
0.0
 20
0.0
 30
0.0
 70
   128
  0
VERTEX
  5
EE
330
ED
100
AcDbEntity
  8
0
 62
     0
100
AcDbVertex
100
AcDb2dVertex
 10
-1.0
 20
-0.1
 30
0.0
  0
VERTEX
  5
EF
330
ED
100
AcDbEntity
  8
0
 62
     0
100
AcDbVertex
100
AcDb2dVertex
 10
0.0
 20
0.0
 30
0.0
  0
VERTEX
  5
F1
330
ED
100
AcDbEntity
  8
0
 62
     0
100
AcDbVertex
100
AcDb2dVertex
 10
-1.0
 20
0.1
 30
0.0
  0
VERTEX
  5
F2
330
ED
100
AcDbEntity
  8
0
 62
     0
100
AcDbVertex
100
AcDb2dVertex
 10
-1.0
 20
-0.1
 30
0.0
  0
SEQEND
  5
F0
330
ED
100
AcDbEntity
  8
0
 62
     0
  0
SOLID
  5
F3
330
E9
100
AcDbEntity
  8
0
 62
     0
100
AcDbTrace
 10
-1.0
 20
-0.1
 30
0.0
 11
0.0
 21
0.0
 31
0.0
 12
-1.0
 22
0.1
 32
0.0
 13
-1.0
 23
-0.1
 33
0.0
  0
LINE
  5
F4
330
E9
100
AcDbEntity
  8
0
 62
     0
100
AcDbLine
 10
-1.0
 20
-0.1
 30
0.0
 11
0.0
 21
0.0
 31
0.0
  0
LINE
  5
F5
330
E9
100
AcDbEntity
  8
0
 62
     0
100
AcDbLine
 10
0.0
 20
0.0
 30
0.0
 11
-1.0
 21
0.1
 31
0.0
  0
LINE
  5
F6
330
E9
100
AcDbEntity
  8
0
 62
     0
100
AcDbLine
 10
-1.0
 20
0.1
 30
0.0
 11
-1.0
 21
-0.1
 31
0.0
  0
ENDBLK
  5
EB
330
E9
100
AcDbEntity
  8
0
100
AcDbBlockEnd
  0
BLOCK
  5
FA
330
F9
100
AcDbEntity
  8
0
100
AcDbBlockBegin
  2
図面枠 A3
 70
     0
 10
0.0
 20
0.0
 30
0.0
  3
図面枠 A3
  1

  0
LINE
  5
FC
330
F9
100
AcDbEntity
  8
0
370
    30
100
AcDbLine
 10
410.0008146497268
 20
148.4985097414556
 30
0.0
 11
412.0008146497267
 21
148.4985097414556
 31
0.0
  0
LINE
  5
FD
330
F9
100
AcDbEntity
  8
0
370
    30
100
AcDbLine
 10
215.0008146497268
 20
289.9985097414557
 30
0.0
 11
215.0008146497268
 21
291.9985097414557
 31
0.0
  0
LINE
  5
FE
330
F9
100
AcDbEntity
  8
0
370
    30
100
AcDbLine
 10
215.0008146497268
 20
6.998509741455603
 30
0.0
 11
215.0008146497268
 21
4.998509741455601
 31
0.0
  0
LINE
  5
FF
330
F9
100
AcDbEntity
  8
0
100
AcDbLine
 10
410.0008146497268
 20
283.9985097414557
 30
0.0
 11
356.0008146497267
 21
283.9985097414557
 31
0.0
  0
LINE
  5
100
330
F9
100
AcDbEntity
  8
0
100
AcDbLine
 10
410.0008146497268
 20
277.9985097414557
 30
0.0
 11
356.0008146497267
 21
277.9985097414557
 31
0.0
  0
LINE
  5
101
330
F9
100
AcDbEntity
  8
0
100
AcDbLine
 10
410.0008146497268
 20
247.9985097414556
 30
0.0
 11
356.0008146497267
 21
247.9985097414556
 31
0.0
  0
LINE
  5
102
330
F9
100
AcDbEntity
  8
0
100
AcDbLine
 10
388.8258810354948
 20
283.9985097414557
 30
0.0
 11
388.8258810354948
 21
247.9985097414556
 31
0.0
  0
LINE
  5
103
330
F9
100
AcDbEntity
  8
0
100
AcDbLine
 10
326.1227252816969
 20
291.1820565771712
 30
0.0
 11
403.9450802550623
 21
291.1820565771712
 31
0.0
  0
LINE
  5
104
330
F9
100
AcDbEntity
  8
0
370
    30
100
AcDbLine
 10
10.00081464972674
 20
6.998509741455603
 30
0.0
 11
410.0008146497268
 21
6.998509741455603
 31
0.0
  0
LINE
  5
105
330
F9
100
AcDbEntity
  8
0
370
    30
100
AcDbLine
 10
410.0008146497268
 20
6.998509741455603
 30
0.0
 11
410.0008146497268
 21
289.9985097414557
 31
0.0
  0
LINE
  5
106
330
F9
100
AcDbEntity
  8
0
370
    30
100
AcDbLine
 10
410.0008146497268
 20
289.9985097414557
 30
0.0
 11
10.00081464972673
 21
289.9985097414557
 31
0.0
  0
LINE
  5
107
330
F9
100
AcDbEntity
  8
0
370
    30
100
AcDbLine
 10
10.00081464972677
 20
289.9985097414557
 30
0.0
 11
10.00081464972674
 21
6.99850974145562
 31
0.0
  0
LINE
  5
108
330
F9
100
AcDbEntity
  8
0
370
    30
100
AcDbLine
 10
8.000814649726756
 20
148.4985097414556
 30
0.0
 11
10.00081464972675
 21
148.4985097414556
 31
0.0
  0
LINE
  5
109
330
F9
100
AcDbEntity
  8
0
100
AcDbLine
 10
356.0008146497267
 20
247.9985097414556
 30
0.0
 11
356.0008146497268
 21
289.9985097414557
 31
0.0
  0
TEXT
  5
10B
330
F9
100
AcDbEntity
  8
0
100
AcDbText
 10
362.1216087976784
 20
274.1985097891394
 30
0.0
 40
2.599999904632568
  1
1以上　4以下
  7
文字スタイル50
 72
     1
 11
372.4133478426109
 21
275.4985097414557
 31
0.0
100
AcDbText
 73
     2
  0
TEXT
  5
10D
330
F9
100
AcDbEntity
  8
0
100
AcDbText
 10
360.8731199247353
 20
269.1985097891394
 30
0.0
 40
2.599999904632568
  1
4ヲコエ　16以下
  7
文字スタイル50
 72
     1
 11
372.4133478426109
 21
270.4985097414557
 31
0.0
100
AcDbText
 73
     2
  0
TEXT
  5
10E
330
F9
100
AcDbEntity
  8
0
100
AcDbText
 10
367.3216086069436
 20
264.1985097891394
 30
0.0
 40
2.599999904632568
  1
16　63
  7
文字スタイル50
 72
     1
 11
372.4133478426109
 21
265.4985097414557
 31
0.0
100
AcDbText
 73
     2
  0
TEXT
  5
10F
330
F9
100
AcDbEntity
  8
0
100
AcDbText
 10
366.345517306279
 20
259.1985097891394
 30
0.0
 40
2.599999904632568
  1
63　250
  7
文字スタイル50
 72
     1
 11
372.4133478426109
 21
260.4985097414557
 31
0.0
100
AcDbText
 73
     2
  0
TEXT
  5
110
330
F9
100
AcDbEntity
  8
0
100
AcDbText
 10
364.3933347049497
 20
254.1985097891394
 30
0.0
 40
2.599999904632568
  1
250　1000
  7
文字スタイル50
 72
     1
 11
372.4133478426109
 21
255.4985097414557
 31
0.0
100
AcDbText
 73
     2
  0
TEXT
  5
111
330
F9
100
AcDbEntity
  8
0
100
AcDbText
 10
363.4172434042851
 20
249.1985097891394
 30
0.0
 40
2.599999904632568
  1
1000　4000
  7
文字スタイル50
 72
     1
 11
372.4133478426109
 21
250.4985097414557
 31
0.0
100
AcDbText
 73
     2
  0
TEXT
  5
112
330
F9
100
AcDbEntity
  8
0
100
AcDbText
 10
395.6189893518341
 20
274.1985097891394
 30
0.0
 40
2.599999904632568
  1
±0.1
  7
文字スタイル50
 72
     1
 11
399.4133478426109
 21
275.4985097414557
 31
0.0
100
AcDbText
 73
     2
  0
TEXT
  5
113
330
F9
100
AcDbEntity
  8
0
100
AcDbText
 10
395.6189893518341
 20
269.1985097891394
 30
0.0
 40
2.599999904632568
  1
±0.2
  7
文字スタイル50
 72
     1
 11
399.4133478426109
 21
270.4985097414557
 31
0.0
100
AcDbText
 73
     2
  0
TEXT
  5
114
330
F9
100
AcDbEntity
  8
0
100
AcDbText
 10
395.6189893518341
 20
264.1985097891394
 30
0.0
 40
2.599999904632568
  1
±0.3
  7
文字スタイル50
 72
     1
 11
399.4133478426109
 21
265.4985097414557
 31
0.0
100
AcDbText
 73
     2
  0
TEXT
  5
115
330
F9
100
AcDbEntity
  8
0
100
AcDbText
 10
395.6189893518341
 20
259.1985097891394
 30
0.0
 40
2.599999904632568
  1
±0.4
  7
文字スタイル50
 72
     1
 11
399.4133478426109
 21
260.4985097414557
 31
0.0
100
AcDbText
 73
     2
  0
TEXT
  5
116
330
F9
100
AcDbEntity
  8
0
100
AcDbText
 10
395.6189893518341
 20
254.1985097891394
 30
0.0
 40
2.599999904632568
  1
±0.8
  7
文字スタイル50
 72
     1
 11
399.4133478426109
 21
255.4985097414557
 31
0.0
100
AcDbText
 73
     2
  0
TEXT
  5
117
330
F9
100
AcDbEntity
  8
0
100
AcDbText
 10
395.6189893518341
 20
249.1985097891393
 30
0.0
 40
2.599999904632568
  1
±1.5
  7
文字スタイル50
 72
     1
 11
399.4133478426109
 21
250.4985097414556
 31
0.0
100
AcDbText
 73
     2
  0
TEXT
  5
118
330
F9
100
AcDbEntity
  8
0
100
AcDbText
 10
372.7170547124197
 20
285.5267389536521
 30
0.0
 40
2.599999904632568
  1
普通寸法公差
  7
文字スタイル50
 72
     1
 11
383.4453283283112
 21
286.8267389059683
 31
0.0
100
AcDbText
 73
     2
  0
TEXT
  5
119
330
F9
100
AcDbEntity
  8
0
100
AcDbText
 10
393.0015280643632
 20
279.2784788295617
 30
0.0
 40
2.599999904632568
  1
削リ加工
  7
文字スタイル50
 72
     1
 11
399.4133478426109
 21
280.578478781878
 31
0.0
100
AcDbText
 73
     2
  0
TEXT
  5
11B
330
F9
100
AcDbEntity
  8
0
100
AcDbText
 10
365.8113332151606
 20
279.7985097682778
 30
0.0
 40
2.399999946355818
  1
寸法区分
  7
文字スタイル51
 72
     1
 11
372.4133478426109
 21
280.9985097414557
 31
0.0
100
AcDbText
 73
     2
  0
TEXT
  5
11D
330
F9
100
AcDbEntity
  8
0
100
AcDbText
 10
381.485482979958
 20
291.6736657489481
 30
0.0
 40
2.5
  1
用紙サイズ：A3
  7
文字スタイル47
100
AcDbText
  0
TEXT
  5
11E
330
F9
100
AcDbEntity
  8
0
100
AcDbText
 10
327.4519940075203
 20
291.7319913748928
 30
0.0
 40
2.5
  1
帳票No.
  7
文字スタイル47
100
AcDbText
  0
ENDBLK
  5
FB
330
F9
100
AcDbEntity
  8
0
100
AcDbBlockEnd
  0
BLOCK
  5
121
330
120
100
AcDbEntity
  8
0
100
AcDbBlockBegin
  2
表題欄 hakko_表題欄
 70
     2
 10
0.0
 20
0.0
 30
0.0
  3
表題欄 hakko_表題欄
  1

  0
LINE
  5
123
330
120
100
AcDbEntity
  8
0
100
AcDbLine
 10
283.2581190367926
 20
257.800895246696
 30
0.0
 11
283.2581190367926
 21
235.000895246696
 31
0.0
  0
LINE
  5
124
330
120
100
AcDbEntity
  8
0
100
AcDbLine
 10
199.2581190367926
 20
257.800895246696
 30
0.0
 11
361.2581190367925
 21
257.800895246696
 31
0.0
  0
LINE
  5
125
330
120
100
AcDbEntity
  8
0
100
AcDbLine
 10
199.2581190367926
 20
249.4008952466959
 30
0.0
 11
361.2581190367925
 21
249.4008952466959
 31
0.0
  0
LINE
  5
126
330
120
100
AcDbEntity
  8
0
100
AcDbLine
 10
199.2581190367926
 20
235.000895246696
 30
0.0
 11
361.2581190367925
 21
235.000895246696
 31
0.0
  0
LINE
  5
127
330
120
100
AcDbEntity
  8
0
100
AcDbLine
 10
199.2581190367926
 20
220.600895246696
 30
0.0
 11
361.2581190367925
 21
220.600895246696
 31
0.0
  0
LINE
  5
128
330
120
100
AcDbEntity
  8
0
100
AcDbLine
 10
199.2581190367926
 20
208.600895246696
 30
0.0
 11
325.2581190367927
 21
208.600895246696
 31
0.0
  0
LINE
  5
129
330
120
100
AcDbEntity
  8
0
100
AcDbLine
 10
307.2581190367925
 20
235.000895246696
 30
0.0
 11
307.2581190367925
 21
257.800895246696
 31
0.0
  0
LINE
  5
12A
330
120
100
AcDbEntity
  8
0
100
AcDbLine
 10
308.4971993597696
 20
244.1496440876504
 30
0.0
 11
323.2247953413614
 21
244.1496440876504
 31
0.0
  0
LINE
  5
12B
330
120
100
AcDbEntity
  8
0
100
AcDbLine
 10
343.2581190367927
 20
235.000895246696
 30
0.0
 11
343.2581190367927
 21
257.800895246696
 31
0.0
  0
LINE
  5
12C
330
120
100
AcDbEntity
  8
0
100
AcDbLine
 10
325.2581190367927
 20
196.6008952466959
 30
0.0
 11
325.2581190367927
 21
257.800895246696
 31
0.0
  0
LINE
  5
12D
330
120
100
AcDbEntity
  8
0
100
AcDbLine
 10
326.9788899272978
 20
244.1496440876504
 30
0.0
 11
341.7064859088898
 21
244.1496440876504
 31
0.0
  0
LINE
  5
12E
330
120
100
AcDbEntity
  8
0
100
AcDbLine
 10
344.8830290918792
 20
244.1496440876504
 30
0.0
 11
359.6106250734712
 21
244.1496440876504
 31
0.0
  0
LINE
  5
12F
330
120
100
AcDbEntity
  8
0
100
AcDbLine
 10
259.2581190367925
 20
235.000895246696
 30
0.0
 11
259.2581190367925
 21
257.800895246696
 31
0.0
  0
LINE
  5
130
330
120
100
AcDbEntity
  8
0
100
AcDbLine
 10
217.2581190367926
 20
235.000895246696
 30
0.0
 11
217.2581190367926
 21
257.800895246696
 31
0.0
  0
LINE
  5
131
330
120
100
AcDbEntity
  8
0
100
AcDbLine
 10
235.2581190367926
 20
257.800895246696
 30
0.0
 11
235.2581190367926
 21
196.6008952466959
 31
0.0
  0
LINE
  5
132
330
120
100
AcDbEntity
  8
0
100
AcDbLine
 10
199.2581190367926
 20
196.600895246696
 30
0.0
 11
199.2581190367926
 21
257.800895246696
 31
0.0
  0
TEXT
  5
134
330
120
100
AcDbEntity
  8
0
100
AcDbText
 10
286.6184677524046
 20
250.7968826148384
 30
0.0
 40
1.500000059604644
  1
HEAT TREATMENT
  7
文字スタイル13
 72
     1
 11
295.1444922684986
 21
251.5468826446407
 31
0.0
100
AcDbText
 73
     2
  0
TEXT
  5
136
330
120
100
AcDbEntity
  8
0
100
AcDbText
 10
290.4901656829397
 20
254.2410381433711
 30
0.0
 40
2.19999998807907
  1
熱処理
  7
文字スタイル44
 72
     1
 11
295.0290508161693
 21
255.3410381374106
 31
0.0
100
AcDbText
 73
     2
  0
TEXT
  5
138
330
120
100
AcDbEntity
  8
0
100
AcDbText
 10
261.478036442772
 20
250.825514417305
 30
0.0
 40
1.299999952316284
  1
SURFACE PREPARATION
  7
文字スタイル48
 72
     1
 11
271.1913671811835
 21
251.4755143934632
 31
0.0
100
AcDbText
 73
     2
  0
TEXT
  5
13A
330
120
100
AcDbEntity
  8
0
100
AcDbText
 10
326.5036093801228
 20
204.7290727546811
 30
0.0
 40
3.499999940395355
  1
株式会社
  7
文字スタイル45
100
AcDbText
  0
TEXT
  5
13B
330
120
100
AcDbEntity
  8
0
100
AcDbText
 10
332.5618176609453
 20
230.2791944188561
 30
0.0
 40
2.599999904632568
  1
第　三　角　法
  7
文字スタイル50
 72
     1
 11
343.2761221705661
 21
231.5791943711724
 31
0.0
100
AcDbText
 73
     2
  0
TEXT
  5
13C
330
120
100
AcDbEntity
  8
0
100
AcDbText
 10
329.4971859452708
 20
226.4244468429601
 30
0.0
 40
2.599999904632568
  1
　THIRD　ANGLE
  7
文字スタイル50
 72
     1
 11
342.4648819101827
 21
227.7244467952764
 31
0.0
100
AcDbText
 73
     2
  0
TEXT
  5
13E
330
120
100
AcDbEntity
  8
0
100
AcDbText
 10
346.7212738332899
 20
204.9403320462021
 30
0.0
 40
5.0
  1
八興
  7
文字スタイル46
100
AcDbText
  0
TEXT
  5
13F
330
120
100
AcDbEntity
  8
0
100
AcDbText
 10
264.9656021360805
 20
254.1302950502958
 30
0.0
 40
2.19999998807907
  1
表面処理
  7
文字スタイル44
 72
     1
 11
271.0174489803867
 21
255.2302950443353
 31
0.0
100
AcDbText
 73
     2
  0
TEXT
  5
140
330
120
100
AcDbEntity
  8
0
100
AcDbText
 10
243.4362960979042
 20
254.2155238220218
 30
0.0
 40
2.19999998807907
  1
材　質
  7
文字スタイル44
 72
     1
 11
247.4669206563191
 21
255.3155238160613
 31
0.0
100
AcDbText
 73
     2
  0
TEXT
  5
141
330
120
100
AcDbEntity
  8
0
100
AcDbText
 10
240.6801913178397
 20
250.2719856289981
 30
0.0
 40
2.19999998807907
  1
MATERIAL
  7
文字スタイル44
 72
     1
 11
247.6488279489847
 21
251.3719856230376
 31
0.0
100
AcDbText
 73
     2
  0
TEXT
  5
142
330
120
100
AcDbEntity
  8
0
100
AcDbText
 10
210.7554326701035
 20
198.5697650490052
 30
0.0
 40
2.5
  1
DRG.No.
  7
文字スタイル47
 72
     1
 11
217.2581190367926
 21
199.8197650490052
 31
0.0
100
AcDbText
 73
     2
  0
TEXT
  5
144
330
120
100
AcDbEntity
  8
0
100
AcDbText
 10
209.005600240096
 20
203.2290726950765
 30
0.0
 40
3.000000119209288
  1
図面番号
  7
文字スタイル39
 72
     1
 11
217.2581190367926
 21
204.7290727546811
 31
0.0
100
AcDbText
 73
     2
  0
TEXT
  5
145
330
120
100
AcDbEntity
  8
0
100
AcDbText
 10
222.7847745686897
 20
249.9739207355379
 30
0.0
 40
2.19999998807907
  1
Q'TY
  7
文字スタイル44
 72
     1
 11
225.9392406362174
 21
251.0739207295775
 31
0.0
100
AcDbText
 73
     2
  0
TEXT
  5
146
330
120
100
AcDbEntity
  8
0
100
AcDbText
 10
222.0576307173878
 20
254.1050681046867
 30
0.0
 40
2.19999998807907
  1
個　数
  7
文字スタイル44
 72
     1
 11
226.0882552758027
 21
255.2050680987262
 31
0.0
100
AcDbText
 73
     2
  0
TEXT
  5
147
330
120
100
AcDbEntity
  8
0
100
AcDbText
 10
212.7895159474709
 20
223.3414729374285
 30
0.0
 40
2.5
  1
TITLE
  7
文字スタイル47
 72
     1
 11
217.2581190367926
 21
224.5914729374285
 31
0.0
100
AcDbText
 73
     2
  0
TEXT
  5
148
330
120
100
AcDbEntity
  8
0
100
AcDbText
 10
211.7618125725865
 20
228.4767833011438
 30
0.0
 40
3.000000119209288
  1
名　称
  7
文字スタイル39
 72
     1
 11
217.2581190367926
 21
229.9767833607484
 31
0.0
100
AcDbText
 73
     2
  0
TEXT
  5
149
330
120
100
AcDbEntity
  8
0
100
AcDbText
 10
331.0468106751026
 20
222.4170886946427
 30
0.0
 40
2.599999904632568
  1
　PROJECTION
  7
文字スタイル50
 72
     1
 11
342.5861655238362
 21
223.717088646959
 31
0.0
100
AcDbText
 73
     2
  0
TEXT
  5
14A
330
120
100
AcDbEntity
  8
0
100
AcDbText
 10
328.2223552835758
 20
250.2254492638425
 30
0.0
 40
2.19999998807907
  1
CHECKED
  7
文字スタイル44
 72
     1
 11
334.6746050807157
 21
251.325449257882
 31
0.0
100
AcDbText
 73
     2
  0
TEXT
  5
14B
330
120
100
AcDbEntity
  8
0
100
AcDbText
 10
348.6439815314304
 20
254.6051274989216
 30
0.0
 40
2.19999998807907
  1
承　認
  7
文字スタイル44
 72
     1
 11
352.6746060898452
 21
255.7051274929611
 31
0.0
100
AcDbText
 73
     2
  0
TEXT
  5
14C
330
120
100
AcDbEntity
  8
0
100
AcDbText
 10
330.3636970306255
 20
254.3831785593792
 30
0.0
 40
2.19999998807907
  1
検　図
  7
文字スタイル44
 72
     1
 11
334.3943215890404
 21
255.4831785534187
 31
0.0
100
AcDbText
 73
     2
  0
TEXT
  5
14D
330
120
100
AcDbEntity
  8
0
100
AcDbText
 10
310.6761488698416
 20
250.2781310531209
 30
0.0
 40
2.19999998807907
  1
DRAWN
  7
文字スタイル44
 72
     1
 11
315.9227573034673
 21
251.3781310471605
 31
0.0
100
AcDbText
 73
     2
  0
TEXT
  5
14E
330
120
100
AcDbEntity
  8
0
100
AcDbText
 10
312.135491866355
 20
254.2860607479564
 30
0.0
 40
2.19999998807907
  1
製　図
  7
文字スタイル44
 72
     1
 11
316.1661164247698
 21
255.386060741996
 31
0.0
100
AcDbText
 73
     2
  0
TEXT
  5
14F
330
120
100
AcDbEntity
  8
0
100
AcDbText
 10
204.108228501715
 20
254.0863656255006
 30
0.0
 40
2.19999998807907
  1
尺　度
  7
文字スタイル44
 72
     1
 11
208.1388530601298
 21
255.1863656195402
 31
0.0
100
AcDbText
 73
     2
  0
TEXT
  5
150
330
120
100
AcDbEntity
  8
0
100
AcDbText
 10
203.844383837871
 20
250.2336753667488
 30
0.0
 40
2.19999998807907
  1
SCALE
  7
文字スタイル44
 72
     1
 11
208.1047599061222
 21
251.3336753607883
 31
0.0
100
AcDbText
 73
     2
  0
TEXT
  5
151
330
120
100
AcDbEntity
  8
0
100
AcDbText
 10
206.2213493927362
 20
210.3620477179352
 30
0.0
 40
2.5
  1
TITLE OF DRG
  7
文字スタイル47
 72
     1
 11
217.2581190367926
 21
211.6120477179352
 31
0.0
100
AcDbText
 73
     2
  0
TEXT
  5
152
330
120
100
AcDbEntity
  8
0
100
AcDbText
 10
209.005600240096
 20
215.2563320441053
 30
0.0
 40
3.000000119209288
  1
図面名称
  7
文字スタイル39
 72
     1
 11
217.2581190367926
 21
216.7563321037099
 31
0.0
100
AcDbText
 73
     2
  0
TEXT
  5
153
330
120
100
AcDbEntity
  8
0
100
AcDbText
 10
345.2512226438126
 20
250.2133200831972
 30
0.0
 40
2.19999998807907
  1
APPROVED
  7
文字スタイル44
 72
     1
 11
352.6062259619172
 21
251.3133200772367
 31
0.0
100
AcDbText
 73
     2
  0
ATTDEF
  5
154
102
{ACAD_XDICTIONARY
360
4A3
102
}
330
120
100
AcDbEntity
  8
0
100
AcDbText
 10
271.2581190367925
 20
240.7008951870913
 30
0.0
 40
3.000000119209288
  1

  7
文字スタイル39
 72
     1
 11
271.2581190367925
 21
242.2008952466959
 31
0.0
100
AcDbAttributeDefinition
280
     0
  3
表面処理
  2
表面処理
 70
     0
 74
     2
280
     0
  0
ATTDEF
  5
156
102
{ACAD_XDICTIONARY
360
4A6
102
}
330
120
100
AcDbEntity
  8
0
100
AcDbText
 10
295.2581190367927
 20
240.7008951870913
 30
0.0
 40
3.000000119209288
  1

  7
文字スタイル39
 72
     1
 11
295.2581190367927
 21
242.2008952466959
 31
0.0
100
AcDbAttributeDefinition
280
     0
  3
熱処理
  2
熱処理
 70
     0
 74
     2
280
     0
  0
ATTDEF
  5
157
102
{ACAD_XDICTIONARY
360
4A9
102
}
330
120
100
AcDbEntity
  8
0
100
AcDbText
 10
316.2844436011273
 20
238.6190222142533
 30
0.0
 40
2.5
  1

  7
文字スタイル47
 72
     1
 11
316.2844436011273
 21
239.8690222142533
 31
0.0
100
AcDbAttributeDefinition
280
     0
  3
製図
  2
製図
 70
     0
 74
     2
280
     0
  0
ATTDEF
  5
158
102
{ACAD_XDICTIONARY
360
4AC
102
}
330
120
100
AcDbEntity
  8
0
100
AcDbText
 10
239.8812854714781
 20
226.3008951870914
 30
0.0
 40
3.000000119209288
  1

  7
文字スタイル39
 11
239.8812854714781
 21
227.800895246696
 31
0.0
100
AcDbAttributeDefinition
280
     0
  3
名称
  2
名称
 70
     0
 74
     2
280
     0
  0
ATTDEF
  5
159
102
{ACAD_XDICTIONARY
360
4AF
102
}
330
120
100
AcDbEntity
  8
0
100
AcDbText
 10
239.8812854714781
 20
201.1008951870913
 30
0.0
 40
3.000000119209288
  1

  7
文字スタイル39
 11
239.8812854714781
 21
202.600895246696
 31
0.0
100
AcDbAttributeDefinition
280
     0
  3
図面番号
  2
図面番号
 70
     0
 74
     2
280
     0
  0
ATTDEF
  5
15A
102
{ACAD_XDICTIONARY
360
4B2
102
}
330
120
100
AcDbEntity
  8
0
100
AcDbText
 10
239.8812854714781
 20
213.1008951870914
 30
0.0
 40
3.000000119209288
  1

  7
文字スタイル39
 11
239.8812854714781
 21
214.600895246696
 31
0.0
100
AcDbAttributeDefinition
280
     0
  3
図面名称
  2
図面名称
 70
     0
 74
     2
280
     0
  0
ATTDEF
  5
15C
102
{ACAD_XDICTIONARY
360
4B5
102
}
330
120
100
AcDbEntity
  8
0
100
AcDbText
 10
316.2999861141697
 20
244.7071082673339
 30
0.0
 40
2.000000029802321
  1

  7
文字スタイル49
 72
     1
 11
316.2999861141697
 21
245.707108282235
 31
0.0
100
AcDbAttributeDefinition
280
     0
  3
製図日
  2
製図日
 70
     0
 74
     2
280
     0
  0
ATTDEF
  5
15D
102
{ACAD_XDICTIONARY
360
4B8
102
}
330
120
100
AcDbEntity
  8
0
100
AcDbText
 10
242.8433461340926
 20
240.607145183366
 30
0.0
 40
3.000000119209288
  1
一般
  7
文字スタイル39
100
AcDbAttributeDefinition
280
     0
  3
材料
  2
材料_001
 70
     0
280
     0
  0
ATTDEF
  5
15E
102
{ACAD_XDICTIONARY
360
4BB
102
}
330
120
100
AcDbEntity
  8
0
100
AcDbText
 10
226.2581190367925
 20
240.7008951870913
 30
0.0
 40
3.000000119209288
  1

  7
文字スタイル39
 72
     1
 11
226.2581190367925
 21
242.2008952466959
 31
0.0
100
AcDbAttributeDefinition
280
     0
  3
個数
  2
個数
 70
     0
 74
     2
280
     0
  0
ATTDEF
  5
15F
102
{ACAD_XDICTIONARY
360
4BE
102
}
330
120
100
AcDbEntity
  8
0
100
AcDbText
 10
203.9263525785656
 20
240.6968656368976
 30
0.0
 40
3.000000119209288
  1
1 : 1
  7
文字スタイル39
100
AcDbAttributeDefinition
280
     0
  3
初期ビュー尺度
  2
初期ビュー尺度_001
 70
     0
280
     0
  0
ATTDEF
  5
160
102
{ACAD_XDICTIONARY
360
4C1
102
}
330
120
100
AcDbEntity
  8
0
100
AcDbText
 10
334.464827863855
 20
244.7374073038223
 30
0.0
 40
2.000000029802321
  1

  7
文字スタイル49
 72
     1
 11
334.464827863855
 21
245.7374073187235
 31
0.0
100
AcDbAttributeDefinition
280
     0
  3
検図日
  2
検図日
 70
     0
 74
     2
280
     0
  0
ATTDEF
  5
161
102
{ACAD_XDICTIONARY
360
4C4
102
}
330
120
100
AcDbEntity
  8
0
100
AcDbText
 10
352.7323781574681
 20
244.6657341172503
 30
0.0
 40
2.000000029802321
  1

  7
文字スタイル49
 72
     1
 11
352.7323781574681
 21
245.6657341321514
 31
0.0
100
AcDbAttributeDefinition
280
     0
  3
承認日
  2
承認日
 70
     0
 74
     2
280
     0
  0
ATTDEF
  5
162
102
{ACAD_XDICTIONARY
360
4C7
102
}
330
120
100
AcDbEntity
  8
0
100
AcDbText
 10
334.3470658653624
 20
238.7135154504188
 30
0.0
 40
2.5
  1

  7
文字スタイル47
 72
     1
 11
334.3470658653624
 21
239.9635154504188
 31
0.0
100
AcDbAttributeDefinition
280
     0
  3
検図
  2
検図
 70
     0
 74
     2
280
     0
  0
ATTDEF
  5
163
102
{ACAD_XDICTIONARY
360
4CA
102
}
330
120
100
AcDbEntity
  8
0
100
AcDbText
 10
352.6400487657187
 20
238.7312218124461
 30
0.0
 40
2.5
  1

  7
文字スタイル47
 72
     1
 11
352.6400487657187
 21
239.9812218124461
 31
0.0
100
AcDbAttributeDefinition
280
     0
  3
承認
  2
承認
 70
     0
 74
     2
280
     0
  0
ENDBLK
  5
122
330
120
100
AcDbEntity
  8
0
100
AcDbBlockEnd
  0
BLOCK
  5
177
330
176
100
AcDbEntity
  8
0
100
AcDbBlockBegin
  2
変更履歴
 70
     0
 10
0.0
 20
0.0
 30
0.0
  3
変更履歴
  1

  0
LINE
  5
179
330
176
100
AcDbEntity
  8
Symbol (ISO)
100
AcDbLine
 10
205.2876856061478
 20
289.9985097414557
 30
0.0
 11
356.0008146497269
 21
289.9985097414557
 31
0.0
  0
LINE
  5
17A
330
176
100
AcDbEntity
  8
Symbol (ISO)
100
AcDbLine
 10
205.2876856061478
 20
289.9985097414557
 30
0.0
 11
205.2876856061478
 21
285.1917674768273
 31
0.0
  0
MTEXT
  5
17B
330
176
100
AcDbEntity
  8
Symbol (ISO)
100
AcDbMText
 10
207.5463982398437
 20
286.3238663237659
 30
0.0
 40
2.5
 41
0.0
 46
0.0
 71
     7
 72
     1
  1
Rev.
  7
Rev用
 73
     1
 44
1.0
  0
LINE
  5
17C
330
176
100
AcDbEntity
  8
Symbol (ISO)
100
AcDbLine
 10
216.0008146497268
 20
289.9985097414557
 30
0.0
 11
216.0008146497268
 21
285.1917674768273
 31
0.0
  0
MTEXT
  5
17D
330
176
100
AcDbEntity
  8
Symbol (ISO)
100
AcDbMText
 10
234.402802678494
 20
286.0240283829276
 30
0.0
 40
2.5
 41
0.0
 46
0.0
 71
     7
 72
     1
  1
変更記事
  7
Rev用
 73
     1
 44
1.0
  0
LINE
  5
17E
330
176
100
AcDbEntity
  8
Symbol (ISO)
100
AcDbLine
 10
266.0008146497268
 20
289.9985097414557
 30
0.0
 11
266.0008146497268
 21
285.1917674768273
 31
0.0
  0
MTEXT
  5
17F
330
176
100
AcDbEntity
  8
Symbol (ISO)
100
AcDbMText
 10
277.0831971752159
 20
286.11823425974
 30
0.0
 40
2.5
 41
0.0
 46
0.0
 71
     7
 72
     1
  1
日　付
  7
Rev用
 73
     1
 44
1.0
  0
LINE
  5
180
330
176
100
AcDbEntity
  8
Symbol (ISO)
100
AcDbLine
 10
296.0008146497269
 20
289.9985097414557
 30
0.0
 11
296.0008146497269
 21
285.1917674768273
 31
0.0
  0
MTEXT
  5
181
330
176
100
AcDbEntity
  8
Symbol (ISO)
100
AcDbMText
 10
306.5931959208127
 20
286.0574563440983
 30
0.0
 40
2.5
 41
0.0
 46
0.0
 71
     7
 72
     1
  1
作　成
  7
Rev用
 73
     1
 44
1.0
  0
LINE
  5
182
330
176
100
AcDbEntity
  8
Symbol (ISO)
100
AcDbLine
 10
326.0008146497268
 20
289.9985097414557
 30
0.0
 11
326.0008146497268
 21
285.1917674768273
 31
0.0
  0
MTEXT
  5
183
330
176
100
AcDbEntity
  8
Symbol (ISO)
100
AcDbMText
 10
336.5811958900928
 20
286.097974939004
 30
0.0
 40
2.5
 41
0.0
 46
0.0
 71
     7
 72
     1
  1
承　認
  7
Rev用
 73
     1
 44
1.0
  0
LINE
  5
184
330
176
100
AcDbEntity
  8
Symbol (ISO)
100
AcDbLine
 10
356.0008146497269
 20
289.9985097414557
 30
0.0
 11
356.0008146497269
 21
285.1917674768273
 31
0.0
  0
MTEXT
  5
185
330
176
100
AcDbEntity
  8
Symbol (ISO)
100
AcDbMText
 10
210.0802445949108
 20
281.5343445697729
 30
0.0
 40
2.5
 41
0.0
 46
0.0
 71
     7
 72
     1
  1
1
  7
Rev用
 73
     1
 44
1.0
  0
MTEXT
  5
186
330
176
100
AcDbEntity
  8
Symbol (ISO)
100
AcDbMText
 10
240.4639426874776
 20
281.5383963445131
 30
0.0
 40
2.5
 41
0.0
 46
0.0
 71
     7
 72
     1
  1
 
  7
Rev用
 73
     1
 44
1.0
  0
MTEXT
  5
187
330
176
100
AcDbEntity
  8
Symbol (ISO)
100
AcDbMText
 10
280.4639426874776
 20
281.5383963445131
 30
0.0
 40
2.5
 41
0.0
 46
0.0
 71
     7
 72
     1
  1
 
  7
Rev用
 73
     1
 44
1.0
  0
MTEXT
  5
188
330
176
100
AcDbEntity
  8
Symbol (ISO)
100
AcDbMText
 10
296.8908146497268
 20
281.5383963445131
 30
0.0
 40
2.5
 41
0.0
 46
0.0
 71
     7
 72
     1
  1
 
  7
Rev用
 73
     1
 44
1.0
  0
MTEXT
  5
189
330
176
100
AcDbEntity
  8
Symbol (ISO)
100
AcDbMText
 10
326.8908146497269
 20
281.5383963445131
 30
0.0
 40
2.5
 41
0.0
 46
0.0
 71
     7
 72
     1
  1
 
  7
Rev用
 73
     1
 44
1.0
  0
LINE
  5
18A
330
176
100
AcDbEntity
  8
Symbol (ISO)
100
AcDbLine
 10
205.2876856061478
 20
285.1917674768273
 30
0.0
 11
356.0008146497269
 21
285.1917674768273
 31
0.0
  0
LINE
  5
18B
330
176
100
AcDbEntity
  8
Symbol (ISO)
100
AcDbLine
 10
205.2876856061478
 20
280.3850252121989
 30
0.0
 11
356.0008146497269
 21
280.3850252121989
 31
0.0
  0
LINE
  5
18C
330
176
100
AcDbEntity
  8
Symbol (ISO)
100
AcDbLine
 10
205.2876856061478
 20
285.1917674768273
 30
0.0
 11
205.2876856061478
 21
280.3850252121989
 31
0.0
  0
LINE
  5
18D
330
176
100
AcDbEntity
  8
Symbol (ISO)
100
AcDbLine
 10
216.0008146497268
 20
285.1917674768273
 30
0.0
 11
216.0008146497268
 21
280.3850252121989
 31
0.0
  0
LINE
  5
18E
330
176
100
AcDbEntity
  8
Symbol (ISO)
100
AcDbLine
 10
266.0008146497268
 20
285.1917674768273
 30
0.0
 11
266.0008146497268
 21
280.3850252121989
 31
0.0
  0
LINE
  5
18F
330
176
100
AcDbEntity
  8
Symbol (ISO)
100
AcDbLine
 10
296.0008146497269
 20
285.1917674768273
 30
0.0
 11
296.0008146497269
 21
280.3850252121989
 31
0.0
  0
LINE
  5
190
330
176
100
AcDbEntity
  8
Symbol (ISO)
100
AcDbLine
 10
326.0008146497268
 20
285.1917674768273
 30
0.0
 11
326.0008146497268
 21
280.3850252121989
 31
0.0
  0
LINE
  5
191
330
176
100
AcDbEntity
  8
Symbol (ISO)
100
AcDbLine
 10
356.0008146497269
 20
285.1917674768273
 30
0.0
 11
356.0008146497269
 21
280.3850252121989
 31
0.0
  0
ENDBLK
  5
178
330
176
100
AcDbEntity
  8
0
100
AcDbBlockEnd
  0
BLOCK
  5
2B3
330
2B2
100
AcDbEntity
  8
0
100
AcDbBlockBegin
  2
*D6
 70
     1
 10
0.0
 20
0.0
 30
0.0
  3
*D6
  1

  0
LINE
  5
395
330
2B2
100
AcDbEntity
  8
Dimension (ISO)
440
 16777216
100
AcDbLine
 10
180.5
 20
165.5
 30
0.0
 11
168.0487453165839
 21
165.5
 31
0.0
  0
LINE
  5
396
330
2B2
100
AcDbEntity
  8
Dimension (ISO)
440
 16777216
100
AcDbLine
 10
180.5
 20
131.5
 30
0.0
 11
168.0487453165839
 21
131.5
 31
0.0
  0
LINE
  5
397
330
2B2
100
AcDbEntity
  8
Dimension (ISO)
440
 16777216
100
AcDbLine
 10
169.0487453165839
 20
163.0
 30
0.0
 11
169.0487453165839
 21
134.0
 31
0.0
  0
SOLID
  5
398
330
2B2
100
AcDbEntity
  8
Dimension (ISO)
440
 16777216
100
AcDbTrace
 10
168.6320786499172
 20
163.0
 30
0.0
 11
169.4654119832506
 21
163.0
 31
0.0
 12
169.0487453165839
 22
165.5
 32
0.0
 13
169.0487453165839
 23
165.5
 33
0.0
  0
SOLID
  5
399
330
2B2
100
AcDbEntity
  8
Dimension (ISO)
440
 16777216
100
AcDbTrace
 10
168.6320786499172
 20
134.0
 30
0.0
 11
169.4654119832506
 21
134.0
 31
0.0
 12
169.0487453165839
 22
131.5
 32
0.0
 13
169.0487453165839
 23
131.5
 33
0.0
  0
MTEXT
  5
39A
330
2B2
100
AcDbEntity
  8
Dimension (ISO)
440
 16777216
100
AcDbMText
 10
163.1201355444817
 20
143.1084620899055
 30
0.0
 40
4.5
 41
0.0
 46
0.0
 71
     1
 72
     1
  1
\A1;\fTahoma|b0|i0;\H4.5000;Ø34
  7
Note Text (JIS)
 11
0.0000000000000001
 21
1.0
 31
0.0
 73
     1
 44
1.0
  0
POINT
  5
39B
330
2B2
100
AcDbEntity
  8
Defpoints
 62
     0
440
 16777216
100
AcDbPoint
 10
180.5
 20
165.5
 30
0.0
  0
POINT
  5
39C
330
2B2
100
AcDbEntity
  8
Defpoints
 62
     0
440
 16777216
100
AcDbPoint
 10
180.5
 20
131.5
 30
0.0
  0
POINT
  5
39D
330
2B2
100
AcDbEntity
  8
Defpoints
 62
     0
440
 16777216
100
AcDbPoint
 10
169.0487453165839
 20
131.5
 30
0.0
  0
ENDBLK
  5
2B4
330
2B2
100
AcDbEntity
  8
0
100
AcDbBlockEnd
  0
BLOCK
  5
3A0
330
39F
100
AcDbEntity
  8
0
100
AcDbBlockBegin
  2
*D7
 70
     1
 10
0.0
 20
0.0
 30
0.0
  3
*D7
  1

  0
LINE
  5
482
330
39F
100
AcDbEntity
  8
Dimension (ISO)
440
 16777216
100
AcDbLine
 10
180.0
 20
132.0
 30
0.0
 11
180.0
 21
111.55
 31
0.0
  0
LINE
  5
483
330
39F
100
AcDbEntity
  8
Dimension (ISO)
440
 16777216
100
AcDbLine
 10
240.0
 20
128.55
 30
0.0
 11
240.0
 21
111.55
 31
0.0
  0
LINE
  5
484
330
39F
100
AcDbEntity
  8
Dimension (ISO)
440
 16777216
100
AcDbLine
 10
182.5
 20
112.55
 30
0.0
 11
237.5
 21
112.55
 31
0.0
  0
SOLID
  5
485
330
39F
100
AcDbEntity
  8
Dimension (ISO)
440
 16777216
100
AcDbTrace
 10
182.5
 20
112.9666666666667
 30
0.0
 11
182.5
 21
112.1333333333333
 31
0.0
 12
180.0
 22
112.55
 32
0.0
 13
180.0
 23
112.55
 33
0.0
  0
SOLID
  5
486
330
39F
100
AcDbEntity
  8
Dimension (ISO)
440
 16777216
100
AcDbTrace
 10
237.5
 20
112.9666666666667
 30
0.0
 11
237.5
 21
112.1333333333333
 31
0.0
 12
240.0
 22
112.55
 32
0.0
 13
240.0
 23
112.55
 33
0.0
  0
MTEXT
  5
487
330
39F
100
AcDbEntity
  8
Dimension (ISO)
440
 16777216
100
AcDbMText
 10
206.8750839691493
 20
118.0343518837704
 30
0.0
 40
4.5
 41
0.0
 46
0.0
 71
     1
 72
     1
  1
\A1;60
  7
Note Text (JIS)
 73
     1
 44
1.0
  0
POINT
  5
488
330
39F
100
AcDbEntity
  8
Defpoints
 62
     0
440
 16777216
100
AcDbPoint
 10
180.0
 20
132.0
 30
0.0
  0
POINT
  5
489
330
39F
100
AcDbEntity
  8
Defpoints
 62
     0
440
 16777216
100
AcDbPoint
 10
240.0
 20
128.55
 30
0.0
  0
POINT
  5
48A
330
39F
100
AcDbEntity
  8
Defpoints
 62
     0
440
 16777216
100
AcDbPoint
 10
240.0
 20
112.55
 30
0.0
  0
ENDBLK
  5
3A1
330
39F
100
AcDbEntity
  8
0
100
AcDbBlockEnd
  0
ENDSEC
  0
SECTION
  2
ENTITIES
  0
LINE
  5
193
330
70
100
AcDbEntity
  8
Visible (ISO)
100
AcDbLine
 10
238.0
 20
168.75
 30
0.0
 11
238.0
 21
128.25
 31
0.0
  0
SPLINE
  5
194
330
70
100
AcDbEntity
  8
Visible (ISO)
100
AcDbSpline
210
0.0
220
0.0
230
1.0
 70
    12
 71
     2
 72
     6
 73
     3
 74
     0
 42
0.000000001
 43
0.0000000001
 40
0.0
 40
0.0
 40
0.0
 40
1.86904610251682
 40
1.86904610251682
 40
1.86904610251682
 10
236.7009618943233
 20
161.616711529833
 30
0.0
 41
1.0
 10
238.9077229232259
 20
166.2535207775809
 30
0.0
 41
1.097560975609753
 10
236.7009618943233
 20
170.8903300253288
 30
0.0
 41
1.0
  0
LINE
  5
195
330
70
100
AcDbEntity
  8
Visible (ISO)
100
AcDbLine
 10
236.7009618943233
 20
161.616711529833
 30
0.0
 11
236.7009618943233
 21
157.7736184954956
 31
0.0
  0
SPLINE
  5
196
330
70
100
AcDbEntity
  8
Visible (ISO)
100
AcDbSpline
210
0.0
220
0.0
230
1.0
 70
    12
 71
     2
 72
     6
 73
     3
 74
     0
 42
0.000000001
 43
0.0000000001
 40
0.0
 40
0.0
 40
0.0
 40
1.869046102516818
 40
1.869046102516818
 40
1.869046102516818
 10
236.7009618943233
 20
139.2263815045043
 30
0.0
 41
1.0
 10
238.9077229232259
 20
148.5
 30
0.0
 41
1.097560975609757
 10
236.7009618943233
 20
157.7736184954956
 30
0.0
 41
1.0
  0
LINE
  5
197
330
70
100
AcDbEntity
  8
Visible (ISO)
100
AcDbLine
 10
236.7009618943233
 20
139.2263815045043
 30
0.0
 11
236.7009618943233
 21
135.3832884701668
 31
0.0
  0
SPLINE
  5
198
330
70
100
AcDbEntity
  8
Visible (ISO)
100
AcDbSpline
210
0.0
220
0.0
230
1.0
 70
    12
 71
     2
 72
     6
 73
     3
 74
     0
 42
0.000000001
 43
0.0000000001
 40
0.0
 40
0.0
 40
0.0
 40
1.86904610251682
 40
1.86904610251682
 40
1.86904610251682
 10
236.7009618943233
 20
126.1096699746711
 30
0.0
 41
1.0
 10
238.9077229232259
 20
130.746479222419
 30
0.0
 41
1.097560975609757
 10
236.7009618943233
 20
135.3832884701668
 30
0.0
 41
1.0
  0
LINE
  5
199
330
70
100
AcDbEntity
  8
Visible (ISO)
100
AcDbLine
 10
236.7009618943233
 20
126.1096699746711
 30
0.0
 11
236.7009618943233
 21
126.0
 31
0.0
  0
LINE
  5
19A
330
70
100
AcDbEntity
  8
Visible (ISO)
100
AcDbLine
 10
236.7009618943233
 20
171.0
 30
0.0
 11
236.7009618943233
 21
170.8903300253288
 31
0.0
  0
LINE
  5
19B
330
70
100
AcDbEntity
  8
Visible (ISO)
100
AcDbLine
 10
209.0
 20
128.25
 30
0.0
 11
209.0
 21
168.75
 31
0.0
  0
SPLINE
  5
19C
330
70
100
AcDbEntity
  8
Visible (ISO)
100
AcDbSpline
210
0.0
220
0.0
230
1.0
 70
    12
 71
     2
 72
     6
 73
     3
 74
     0
 42
0.000000001
 43
0.0000000001
 40
0.0
 40
0.0
 40
0.0
 40
1.869046102516824
 40
1.869046102516824
 40
1.869046102516824
 10
210.2990381056766
 20
170.8903300253288
 30
0.0
 41
1.0
 10
208.0922770767741
 20
166.2535207775809
 30
0.0
 41
1.097560975609762
 10
210.2990381056767
 20
161.616711529833
 30
0.0
 41
1.0
  0
LINE
  5
19D
330
70
100
AcDbEntity
  8
Visible (ISO)
100
AcDbLine
 10
210.2990381056766
 20
170.8903300253288
 30
0.0
 11
210.2990381056766
 21
171.0
 31
0.0
  0
LINE
  5
19E
330
70
100
AcDbEntity
  8
Visible (ISO)
100
AcDbLine
 10
210.2990381056766
 20
126.0
 30
0.0
 11
210.2990381056766
 21
126.1096699746711
 31
0.0
  0
SPLINE
  5
19F
330
70
100
AcDbEntity
  8
Visible (ISO)
100
AcDbSpline
210
0.0
220
0.0
230
1.0
 70
    12
 71
     2
 72
     6
 73
     3
 74
     0
 42
0.000000001
 43
0.0000000001
 40
0.0
 40
0.0
 40
0.0
 40
1.86904610251682
 40
1.86904610251682
 40
1.86904610251682
 10
210.2990381056766
 20
135.3832884701668
 30
0.0
 41
1.0
 10
208.0922770767741
 20
130.746479222419
 30
0.0
 41
1.097560975609757
 10
210.2990381056766
 20
126.1096699746711
 30
0.0
 41
1.0
  0
LINE
  5
1A0
330
70
100
AcDbEntity
  8
Visible (ISO)
100
AcDbLine
 10
210.2990381056766
 20
135.3832884701668
 30
0.0
 11
210.2990381056766
 21
139.2263815045043
 31
0.0
  0
SPLINE
  5
1A1
330
70
100
AcDbEntity
  8
Visible (ISO)
100
AcDbSpline
210
0.0
220
0.0
230
1.0
 70
    12
 71
     2
 72
     6
 73
     3
 74
     0
 42
0.000000001
 43
0.0000000001
 40
0.0
 40
0.0
 40
0.0
 40
1.86904610251682
 40
1.86904610251682
 40
1.86904610251682
 10
210.2990381056766
 20
157.7736184954956
 30
0.0
 41
1.0
 10
208.0922770767741
 20
148.5
 30
0.0
 41
1.097560975609755
 10
210.2990381056766
 20
139.2263815045043
 30
0.0
 41
1.0
  0
LINE
  5
1A2
330
70
100
AcDbEntity
  8
Visible (ISO)
100
AcDbLine
 10
210.2990381056766
 20
157.7736184954956
 30
0.0
 11
210.2990381056766
 21
161.616711529833
 31
0.0
  0
LINE
  5
1A3
330
70
100
AcDbEntity
  8
Visible (ISO)
100
AcDbLine
 10
238.0
 20
128.25
 30
0.0
 11
236.7009618943233
 21
126.0
 31
0.0
  0
LINE
  5
1A4
330
70
100
AcDbEntity
  8
Visible (ISO)
100
AcDbLine
 10
238.0
 20
168.75
 30
0.0
 11
236.7009618943233
 21
171.0
 31
0.0
  0
LINE
  5
1A5
330
70
100
AcDbEntity
  8
Visible (ISO)
100
AcDbLine
 10
209.0
 20
168.75
 30
0.0
 11
210.2990381056766
 21
171.0
 31
0.0
  0
LINE
  5
1A6
330
70
100
AcDbEntity
  8
Visible (ISO)
100
AcDbLine
 10
209.0
 20
128.25
 30
0.0
 11
210.2990381056766
 21
126.0
 31
0.0
  0
LINE
  5
1A7
330
70
100
AcDbEntity
  8
Visible (ISO)
100
AcDbLine
 10
210.2990381056766
 20
170.8903300253288
 30
0.0
 11
236.7009618943233
 21
170.8903300253288
 31
0.0
  0
LINE
  5
1A8
330
70
100
AcDbEntity
  8
Visible (ISO)
100
AcDbLine
 10
236.7009618943233
 20
161.616711529833
 30
0.0
 11
210.2990381056766
 21
161.616711529833
 31
0.0
  0
LINE
  5
1A9
330
70
100
AcDbEntity
  8
Visible (ISO)
100
AcDbLine
 10
236.7009618943233
 20
126.1096699746711
 30
0.0
 11
210.2990381056766
 21
126.1096699746711
 31
0.0
  0
LINE
  5
1AA
330
70
100
AcDbEntity
  8
Visible (ISO)
100
AcDbLine
 10
236.7009618943233
 20
139.2263815045043
 30
0.0
 11
210.2990381056767
 21
139.2263815045043
 31
0.0
  0
LINE
  5
1AB
330
70
100
AcDbEntity
  8
Visible (ISO)
100
AcDbLine
 10
210.2990381056766
 20
135.3832884701668
 30
0.0
 11
236.7009618943233
 21
135.3832884701668
 31
0.0
  0
LINE
  5
1AC
330
70
100
AcDbEntity
  8
Visible (ISO)
100
AcDbLine
 10
210.2990381056767
 20
157.7736184954956
 30
0.0
 11
236.7009618943233
 21
157.7736184954956
 31
0.0
  0
LINE
  5
1AD
330
70
100
AcDbEntity
  8
Visible (ISO)
100
AcDbLine
 10
236.7009618943233
 20
171.0
 30
0.0
 11
210.2990381056766
 21
171.0
 31
0.0
  0
LINE
  5
1AE
330
70
100
AcDbEntity
  8
Visible (ISO)
100
AcDbLine
 10
236.7009618943233
 20
126.0
 30
0.0
 11
210.2990381056766
 21
126.0
 31
0.0
  0
ARC
  5
1AF
330
70
100
AcDbEntity
  8
Visible (ISO)
100
AcDbCircle
 10
204.5
 20
164.0
 30
0.0
 40
0.5000000000000027
100
AcDbArc
 50
270.0
 51
0.0
  0
SPLINE
  5
1B0
330
70
100
AcDbEntity
  8
Visible (ISO)
100
AcDbSpline
210
0.0
220
0.0
230
1.0
 70
     8
 71
     3
 72
    16
 73
    12
 74
     0
 42
0.000000001
 43
0.0000000001
 40
0.0
 40
0.0
 40
0.0
 40
0.0
 40
0.0081563631666438
 40
0.0081563631666438
 40
0.0269538414042109
 40
0.0269538414042109
 40
0.0403582634218257
 40
0.0403582634218257
 40
0.0535176703113203
 40
0.0535176703113203
 40
0.0537558782039117
 40
0.0537558782039117
 40
0.0537558782039117
 40
0.0537558782039117
 10
205.0124695303947
 20
163.5
 30
0.0
 10
205.0396574076168
 20
163.5
 30
0.0
 10
205.0668389498238
 20
163.5009258076206
 30
0.0
 10
205.1561982947488
 20
163.5071590647517
 30
0.0
 10
205.2176196535071
 20
163.5166002237662
 30
0.0
 10
205.317942816903
 20
163.541998786273
 30
0.0
 10
205.3580467641073
 20
163.5552605181863
 30
0.0
 10
205.4327916334864
 20
163.5869111708079
 30
0.0
 10
205.4668974696236
 20
163.6049223788457
 30
0.0
 10
205.4988663553161
 20
163.6257628558549
 30
0.0
 10
205.499433705014
 20
163.6261340936333
 30
0.0
 10
205.5000000000196
 20
163.6265060240964
 30
0.0
  0
SPLINE
  5
1B1
330
70
100
AcDbEntity
  8
Visible Narrow (ISO)
100
AcDbSpline
210
0.0
220
0.0
230
1.0
 70
     8
 71
     3
 72
    12
 73
     8
 74
     0
 42
0.000000001
 43
0.0000000001
 40
-1.038812541683239
 40
-1.038812541683239
 40
-1.038812541683239
 40
-1.038812541683239
 40
-0.9751788403099672
 40
-0.9751788403099672
 40
-0.9218072531194016
 40
-0.9218072531194016
 40
-0.8352412791811861
 40
-0.8352412791811861
 40
-0.8352412791811861
 40
-0.8352412791811861
 10
205.5
 20
163.6265060240964
 30
0.0
 10
205.3941383563412
 20
163.6265060240964
 30
0.0
 10
205.293050727288
 20
163.6521439483902
 30
0.0
 10
205.1573294962548
 20
163.7187300238169
 30
0.0
 10
205.1113065200401
 20
163.7559957705022
 30
0.0
 10
205.0230595382158
 20
163.8596039674278
 30
0.0
 10
205.0
 20
163.9298274121146
 30
0.0
 10
205.0
 20
164.0
 30
0.0
  0
LINE
  5
1B2
330
70
100
AcDbEntity
  8
Visible Narrow (ISO)
100
AcDbLine
 10
204.5
 20
160.7397916648939
 30
0.0
 11
205.0
 21
160.7397916648938
 31
0.0
  0
SPLINE
  5
1B3
330
70
100
AcDbEntity
  8
Visible Narrow (ISO)
100
AcDbSpline
210
0.0
220
0.0
230
1.0
 70
     8
 71
     3
 72
    14
 73
    10
 74
     0
 42
0.000000001
 43
0.0000000001
 40
-0.2589456480159592
 40
-0.2589456480159592
 40
-0.2589456480159592
 40
-0.2589456480159592
 40
-0.1808355103438729
 40
-0.1808355103438729
 40
-0.1190080871223419
 40
-0.1190080871223419
 40
-0.0613176770030832
 40
-0.0613176770030832
 40
-0.055374385514062
 40
-0.055374385514062
 40
-0.055374385514062
 40
-0.055374385514062
 10
205.0
 20
160.7397916648939
 30
0.0
 10
205.0
 20
160.9501587904675
 30
0.0
 10
205.0189112375214
 20
161.1583041298983
 30
0.0
 10
205.0971243558133
 20
161.5039390080458
 30
0.0
 10
205.1475210801859
 20
161.6480580875694
 30
0.0
 10
205.2861567575503
 20
161.8689877449808
 30
0.0
 10
205.3745523690232
 20
161.9478139530372
 30
0.0
 10
205.4801892284581
 20
161.9622818750106
 30
0.0
 10
205.4901517290678
 20
161.9629608743016
 30
0.0
 10
205.5
 20
161.9629608743016
 30
0.0
  0
SPLINE
  5
1B4
330
70
100
AcDbEntity
  8
Visible (ISO)
100
AcDbSpline
210
0.0
220
0.0
230
1.0
 70
     8
 71
     3
 72
    14
 73
    10
 74
     0
 42
0.000000001
 43
0.0000000001
 40
-0.0002388074862323
 40
-0.0002388074862323
 40
-0.0002388074862323
 40
-0.0002388074862323
 40
0.0
 40
0.0
 40
0.0163186647857146
 40
0.0163186647857146
 40
0.0335872054116036
 40
0.0335872054116036
 40
0.0537498430958628
 40
0.0537498430958628
 40
0.0537498430958628
 40
0.0537498430958628
 10
205.4999999999966
 20
161.9629608743016
 30
0.0
 10
205.4994337035917
 20
161.9633787632299
 30
0.0
 10
205.4988663567195
 20
161.963795835919
 30
0.0
 10
205.4594566383303
 20
161.9926566908528
 30
0.0
 10
205.4163628914712
 20
162.01675148518
 30
0.0
 10
205.319490582946
 20
162.057670635467
 30
0.0
 10
205.2661279857424
 20
162.073613865895
 30
0.0
 10
205.1462532036311
 20
162.0975826553472
 30
0.0
 10
205.079417506933
 20
162.1037678604128
 30
0.0
 10
205.0124695303947
 20
162.1037678604128
 30
0.0
  0
SPLINE
  5
1B5
330
70
100
AcDbEntity
  8
Visible Narrow (ISO)
100
AcDbSpline
210
0.0
220
0.0
230
1.0
 70
     8
 71
     3
 72
    12
 73
     8
 74
     0
 42
0.000000001
 43
0.0000000001
 40
0.1088668663908295
 40
0.1088668663908295
 40
0.1088668663908295
 40
0.1088668663908295
 40
0.1190080871223419
 40
0.1190080871223419
 40
0.1808355103438729
 40
0.1808355103438729
 40
0.2589456480159592
 40
0.2589456480159592
 40
0.2589456480159592
 40
0.2589456480159592
 10
205.0124694930662
 20
162.1037678288139
 30
0.0
 10
204.9865404223021
 20
162.0818187316016
 30
0.0
 10
204.9620033815475
 20
162.0587441919846
 30
0.0
 10
204.7950421603718
 20
161.8864833668593
 30
0.0
 10
204.6942487116267
 20
161.7011034776325
 30
0.0
 10
204.5378224750429
 20
161.2615728180827
 30
0.0
 10
204.5
 20
161.0001587904676
 30
0.0
 10
204.5
 20
160.7397916648939
 30
0.0
  0
LINE
  5
1B6
330
70
100
AcDbEntity
  8
Visible Narrow (ISO)
100
AcDbLine
 10
204.5
 20
136.2602083351063
 30
0.0
 11
205.0
 21
136.2602083351063
 31
0.0
  0
LINE
  5
1B7
330
70
100
AcDbEntity
  8
Visible Narrow (ISO)
100
AcDbLine
 10
204.5
 20
160.7397916648939
 30
0.0
 11
204.5
 21
136.2602083351063
 31
0.0
  0
LINE
  5
1B8
330
70
100
AcDbEntity
  8
Visible Narrow (ISO)
100
AcDbLine
 10
204.8334119691644
 20
135.0905816680961
 30
0.0
 11
205.1667059845822
 21
135.3344344475473
 31
0.0
  0
SPLINE
  5
1B9
330
70
100
AcDbEntity
  8
Visible Narrow (ISO)
100
AcDbSpline
210
0.0
220
0.0
230
1.0
 70
     8
 71
     3
 72
    10
 73
     6
 74
     0
 42
0.000000001
 43
0.0000000001
 40
-0.1235839726115719
 40
-0.1235839726115719
 40
-0.1235839726115719
 40
-0.1235839726115719
 40
-0.0653563567367394
 40
-0.0653563567367394
 40
-0.000000000000001
 40
-0.000000000000001
 40
-0.000000000000001
 40
-0.000000000000001
 10
205.1667059845822
 20
135.3344344475473
 30
0.0
 10
205.1094025333577
 20
135.4559217147887
 30
0.0
 10
205.0697389684497
 20
135.5970048640337
 30
0.0
 10
205.0133822679041
 20
135.909906037486
 30
0.0
 10
205.0
 20
136.0841898397557
 30
0.0
 10
205.0
 20
136.2602083351063
 30
0.0
  0
SPLINE
  5
1BA
330
70
100
AcDbEntity
  8
Visible Narrow (ISO)
100
AcDbSpline
210
0.0
220
0.0
230
1.0
 70
     8
 71
     3
 72
    10
 73
     6
 74
     0
 42
0.000000001
 43
0.0000000001
 40
0.000000000000001
 40
0.000000000000001
 40
0.000000000000001
 40
0.000000000000001
 40
0.0653563567367394
 40
0.0653563567367394
 40
0.1235839726115719
 40
0.1235839726115719
 40
0.1235839726115719
 40
0.1235839726115719
 10
204.5
 20
136.2602083351063
 30
0.0
 10
204.5
 20
136.0423538126505
 30
0.0
 10
204.5267645358083
 20
135.824023653869
 30
0.0
 10
204.6394779368995
 20
135.4277968625296
 30
0.0
 10
204.7188050667154
 20
135.2472245195648
 30
0.0
 10
204.8334119691644
 20
135.0905816680961
 30
0.0
  0
SPLINE
  5
1BB
330
70
100
AcDbEntity
  8
Visible Narrow (ISO)
100
AcDbSpline
210
0.0
220
0.0
230
1.0
 70
     8
 71
     3
 72
    10
 73
     6
 74
     0
 42
0.000000001
 43
0.0000000001
 40
-0.0991827067771731
 40
-0.0991827067771731
 40
-0.0991827067771731
 40
-0.0991827067771731
 40
-0.0510852421260614
 40
-0.0510852421260614
 40
0.0006280612861623
 40
0.0006280612861623
 40
0.0006280612861623
 40
0.0006280612861623
 10
204.8334119691644
 20
135.0905816680961
 30
0.0
 10
204.9280801323116
 20
135.0258862147603
 30
0.0
 10
205.0338399747172
 20
134.9644283246881
 30
0.0
 10
205.2580753174156
 20
134.8499039426263
 30
0.0
 10
205.3796250782296
 20
134.7963958624635
 30
0.0
 10
205.5
 20
134.7511027229846
 30
0.0
  0
SPLINE
  5
1BC
330
70
100
AcDbEntity
  8
Visible Narrow (ISO)
100
AcDbSpline
210
0.0
220
0.0
230
1.0
 70
     8
 71
     3
 72
    10
 73
     6
 74
     0
 42
0.000000001
 43
0.0000000001
 40
-0.0006280612861623
 40
-0.0006280612861623
 40
-0.0006280612861623
 40
-0.0006280612861623
 40
0.0510852421260614
 40
0.0510852421260614
 40
0.0991827067771731
 40
0.0991827067771731
 40
0.0991827067771731
 40
0.0991827067771731
 10
205.5
 20
134.7511027229846
 30
0.0
 10
205.4398125390993
 20
134.8395062000851
 30
0.0
 10
205.3790376587078
 20
134.9369129393826
 30
0.0
 10
205.2669199873586
 20
135.1334521164666
 30
0.0
 10
205.2140400661558
 20
135.2340829312794
 30
0.0
 10
205.1667059845822
 20
135.3344344475473
 30
0.0
  0
LINE
  5
1BD
330
70
100
AcDbEntity
  8
Visible Narrow (ISO)
100
AcDbLine
 10
204.8334119691644
 20
135.0905816680961
 30
0.0
 11
193.5
 21
135.0905816680961
 31
0.0
  0
LINE
  5
1BE
330
70
100
AcDbEntity
  8
Visible Narrow (ISO)
100
AcDbLine
 10
193.5
 20
135.0905816680961
 30
0.0
 11
193.5
 21
134.7511027229846
 31
0.0
  0
LINE
  5
1BF
330
70
100
AcDbEntity
  8
Visible Narrow (ISO)
100
AcDbLine
 10
193.5
 20
134.7511027229846
 30
0.0
 11
205.5
 21
134.7511027229846
 31
0.0
  0
LINE
  5
1C0
330
70
100
AcDbEntity
  8
Visible Narrow (ISO)
100
AcDbLine
 10
193.5
 20
135.0905816680961
 30
0.0
 11
193.5
 21
162.1037678604128
 31
0.0
  0
LINE
  5
1C1
330
70
100
AcDbEntity
  8
Visible Narrow (ISO)
100
AcDbLine
 10
239.7
 20
128.25
 30
0.0
 11
239.7
 21
168.75
 31
0.0
  0
LINE
  5
1C2
330
70
100
AcDbEntity
  8
Visible (ISO)
100
AcDbLine
 10
240.0
 20
168.45
 30
0.0
 11
240.0
 21
128.55
 31
0.0
  0
LINE
  5
1C3
330
70
100
AcDbEntity
  8
Visible Narrow (ISO)
100
AcDbLine
 10
205.5
 20
168.75
 30
0.0
 11
205.5
 21
163.6265060240964
 31
0.0
  0
LINE
  5
1C4
330
70
100
AcDbEntity
  8
Visible (ISO)
100
AcDbLine
 10
205.0
 20
164.0
 30
0.0
 11
205.0
 21
168.25
 31
0.0
  0
SPLINE
  5
1C5
330
70
100
AcDbEntity
  8
Visible Narrow (ISO)
100
AcDbSpline
210
0.0
220
0.0
230
1.0
 70
     8
 71
     3
 72
     8
 73
     4
 74
     0
 42
0.000000001
 43
0.0000000001
 40
-0.0549563529817896
 40
-0.0549563529817896
 40
-0.0549563529817896
 40
-0.0549563529817896
 40
-0.0539581394479591
 40
-0.0539581394479591
 40
-0.0539581394479591
 40
-0.0539581394479591
 10
204.999999999994
 20
133.4955450342635
 30
0.0
 10
204.9974755076305
 20
133.4970394497571
 30
0.0
 10
204.9949442203262
 20
133.4985228309962
 30
0.0
 10
204.9923976222606
 20
133.4999999999843
 30
0.0
  0
SPLINE
  5
1C6
330
70
100
AcDbEntity
  8
Visible Narrow (ISO)
100
AcDbSpline
210
0.0
220
0.0
230
1.0
 70
     8
 71
     3
 72
    12
 73
     8
 74
     0
 42
0.000000001
 43
0.0000000001
 40
-0.0539581394479591
 40
-0.0539581394479591
 40
-0.0539581394479591
 40
-0.0539581394479591
 40
-0.0327364477879903
 40
-0.0327364477879903
 40
-0.0125909414569194
 40
-0.0125909414569194
 40
0.0
 40
0.0
 40
0.0
 40
0.0
 10
204.9923976222606
 20
133.4999999999843
 30
0.0
 10
204.9382587980602
 20
133.531403539177
 30
0.0
 10
204.8791069867308
 20
133.5588505943006
 30
0.0
 10
204.7553697231506
 20
133.6010515741937
 30
0.0
 10
204.6912576555258
 20
133.6162943086723
 30
0.0
 10
204.5839692030568
 20
133.6301799442707
 30
0.0
 10
204.5419698048564
 20
133.632911392405
 30
0.0
 10
204.5
 20
133.632911392405
 30
0.0
  0
LINE
  5
1C7
330
70
100
AcDbEntity
  8
Visible Narrow (ISO)
100
AcDbLine
 10
204.5
 20
133.632911392405
 30
0.0
 11
204.5
 21
133.5
 31
0.0
  0
SPLINE
  5
1C8
330
70
100
AcDbEntity
  8
Visible (ISO)
100
AcDbSpline
210
0.0
220
0.0
230
1.0
 70
     8
 71
     3
 72
    20
 73
    16
 74
     0
 42
0.000000001
 43
0.0000000001
 40
0.0
 40
0.0
 40
0.0
 40
0.0
 40
0.0125909414569194
 40
0.0125909414569194
 40
0.0327364477879903
 40
0.0327364477879903
 40
0.0599593339955219
 40
0.0599593339955219
 40
0.0850562638339243
 40
0.0850562638339243
 40
0.1225702517452569
 40
0.1225702517452569
 40
0.1713384360299893
 40
0.1713384360299893
 40
0.2022941683239722
 40
0.2022941683239722
 40
0.2022941683239722
 40
0.2022941683239722
 10
204.5
 20
133.5
 30
0.0
 10
204.5209849024282
 20
133.5
 30
0.0
 10
204.5419846015284
 20
133.4986679975147
 30
0.0
 10
204.5956288277629
 20
133.4918966073155
 30
0.0
 10
204.6276848615752
 20
133.4844634219834
 30
0.0
 10
204.6985288582389
 20
133.4608984377172
 30
0.0
 10
204.7356576138684
 20
133.4427033921422
 30
0.0
 10
204.7988786588319
 20
133.4024476287785
 30
0.0
 10
204.8256768844815
 20
133.380806059981
 30
0.0
 10
204.884322005565
 20
133.323584193943
 30
0.0
 10
204.9121651440247
 20
133.2864394619634
 30
0.0
 10
204.9623193541517
 20
133.1987928049642
 30
0.0
 10
204.9805354159619
 20
133.1475955897404
 30
0.0
 10
204.9969471447864
 20
133.0642719895605
 30
0.0
 10
205.0
 20
133.0319739843133
 30
0.0
 10
205.0
 20
133.0
 30
0.0
  0
ELLIPSE
  5
1C9
330
70
100
AcDbEntity
  8
Visible Narrow (ISO)
100
AcDbEllipse
 10
205.5
 20
133.0
 30
0.0
 11
-0.4999999999999984
 21
-0.0000000000000027
 31
0.0
210
0.0
220
0.0
230
1.0
 40
0.7848101265822809
 41
0.0
 42
1.570796326794891
  0
SPLINE
  5
1CA
330
70
100
AcDbEntity
  8
Visible Narrow (ISO)
100
AcDbSpline
210
0.0
220
0.0
230
1.0
 70
     8
 71
     3
 72
    16
 73
    12
 74
     0
 42
0.000000001
 43
0.0000000001
 40
-0.2022941683239722
 40
-0.2022941683239722
 40
-0.2022941683239722
 40
-0.2022941683239722
 40
-0.1713384360299893
 40
-0.1713384360299893
 40
-0.1225702517452569
 40
-0.1225702517452569
 40
-0.0850562638339243
 40
-0.0850562638339243
 40
-0.0599593339955219
 40
-0.0599593339955219
 40
-0.0549563529817896
 40
-0.0549563529817896
 40
-0.0549563529817896
 40
-0.0549563529817896
 10
205.5
 20
132.6075949367088
 30
0.0
 10
205.5
 20
132.67316184125
 30
0.0
 10
205.4938942895728
 20
132.7393931937823
 30
0.0
 10
205.4610708319239
 20
132.9102593106068
 30
0.0
 10
205.4246387083035
 20
133.0152460051164
 30
0.0
 10
205.3243302880494
 20
133.1949771245326
 30
0.0
 10
205.2686440111299
 20
133.2711473344148
 30
0.0
 10
205.1513537689629
 20
133.3884883761635
 30
0.0
 10
205.0977573176638
 20
133.432867289394
 30
0.0
 10
205.0250144083343
 20
133.4803586914051
 30
0.0
 10
205.0126525907834
 20
133.4880551214465
 30
0.0
 10
204.999999999994
 20
133.4955450342635
 30
0.0
  0
LINE
  5
1CB
330
70
100
AcDbEntity
  8
Visible (ISO)
100
AcDbLine
 10
205.0
 20
128.75
 30
0.0
 11
205.0
 21
133.0
 31
0.0
  0
LINE
  5
1CC
330
70
100
AcDbEntity
  8
Visible Narrow (ISO)
100
AcDbLine
 10
205.5
 20
132.6075949367088
 30
0.0
 11
205.5
 21
128.25
 31
0.0
  0
SPLINE
  5
1CD
330
70
100
AcDbEntity
  8
Visible (ISO)
100
AcDbSpline
210
0.0
220
0.0
230
1.0
 70
     8
 71
     3
 72
    18
 73
    14
 74
     0
 42
0.000000001
 43
0.0000000001
 40
-0.0815340497616671
 40
-0.0815340497616671
 40
-0.0815340497616671
 40
-0.0815340497616671
 40
-0.0811951637395625
 40
-0.0811951637395625
 40
-0.0693178817814584
 40
-0.0693178817814584
 40
-0.0575189319196278
 40
-0.0575189319196278
 40
-0.0372296817622698
 40
-0.0372296817622698
 40
-0.0182974817035041
 40
-0.0182974817035041
 40
0.0
 40
0.0
 40
0.0
 40
0.0
 10
192.9999999999999
 20
163.0
 30
0.0
 10
192.9999999999999
 20
163.001054428133
 30
0.0
 10
193.000003335456
 20
163.0021088615023
 30
0.0
 10
193.0002438121698
 20
163.0401187082256
 30
0.0
 10
193.004574531399
 20
163.0770044983882
 30
0.0
 10
193.0213068882544
 20
163.1490332224877
 30
0.0
 10
193.0336280689996
 20
163.1840684791391
 30
0.0
 10
193.077651538328
 20
163.2751620573936
 30
0.0
 10
193.1166312606033
 20
163.3276044858999
 30
0.0
 10
193.2107696191714
 20
163.4124155430484
 30
0.0
 10
193.263858395625
 20
163.4451389768373
 30
0.0
 10
193.3788190049201
 20
163.4888444044141
 30
0.0
 10
193.4390083943216
 20
163.4999999999999
 30
0.0
 10
193.5
 20
163.4999999999999
 30
0.0
  0
ARC
  5
1CE
330
70
100
AcDbEntity
  8
Visible (ISO)
100
AcDbCircle
 10
193.5
 20
134.0
 30
0.0
 40
0.5000000000000049
100
AcDbArc
 50
180.0
 51
270.0
  0
LINE
  5
1CF
330
70
100
AcDbEntity
  8
Visible Narrow (ISO)
100
AcDbLine
 10
193.5
 20
133.632911392405
 30
0.0
 11
193.5
 21
133.5
 31
0.0
  0
ELLIPSE
  5
1D0
330
70
100
AcDbEntity
  8
Visible Narrow (ISO)
100
AcDbEllipse
 10
193.5
 20
134.0
 30
0.0
 11
-0.5000000000000015
 21
-0.0000000000000002
 31
0.0
210
0.0
220
0.0
230
1.0
 40
0.7341772151898665
 41
0.0
 42
1.570796326794896
  0
LINE
  5
1D1
330
70
100
AcDbEntity
  8
Visible (ISO)
100
AcDbLine
 10
193.5
 20
133.5
 30
0.0
 11
204.5
 21
133.5
 31
0.0
  0
LINE
  5
1D2
330
70
100
AcDbEntity
  8
Visible Narrow (ISO)
100
AcDbLine
 10
204.5
 20
133.632911392405
 30
0.0
 11
193.5
 21
133.632911392405
 31
0.0
  0
LINE
  5
1D3
330
70
100
AcDbEntity
  8
Visible (ISO)
100
AcDbLine
 10
192.9999999999999
 20
161.9094183319038
 30
0.0
 11
192.9999999999999
 21
163.0
 31
0.0
  0
SPLINE
  5
1D4
330
70
100
AcDbEntity
  8
Visible (ISO)
100
AcDbSpline
210
0.0
220
0.0
230
1.0
 70
     8
 71
     3
 72
    18
 73
    14
 74
     0
 42
0.000000001
 43
0.0000000001
 40
-0.000339708567106
 40
-0.000339708567106
 40
-0.000339708567106
 40
-0.000339708567106
 40
0.0
 40
0.0
 40
0.0119061105255289
 40
0.0119061105255289
 40
0.0237336988272448
 40
0.0237336988272448
 40
0.0440721951020693
 40
0.0440721951020693
 40
0.0630503474429927
 40
0.0630503474429927
 40
0.0813922408387128
 40
0.0813922408387128
 40
0.0813922408387128
 40
0.0813922408387128
 10
192.9999999999999
 20
161.9094183319038
 30
0.0
 10
192.9999999999999
 20
161.9098311572451
 30
0.0
 10
193.000003335456
 20
161.9102439655719
 30
0.0
 10
193.0002438121698
 20
161.9251240493031
 30
0.0
 10
193.0045745313993
 20
161.9395403959305
 30
0.0
 10
193.0213068882544
 20
161.9676480887544
 30
0.0
 10
193.0336280689996
 20
161.9812977435575
 30
0.0
 10
193.077651538328
 20
162.0167379108967
 30
0.0
 10
193.1166312606033
 20
162.0370837290075
 30
0.0
 10
193.2107696191714
 20
162.0699342167574
 30
0.0
 10
193.263858395625
 20
162.082581969648
 30
0.0
 10
193.37881900492
 20
162.0994645149187
 30
0.0
 10
193.4390083943216
 20
162.1037678604128
 30
0.0
 10
193.5
 20
162.1037678604128
 30
0.0
  0
LINE
  5
1D5
330
70
100
AcDbEntity
  8
Visible Narrow (ISO)
100
AcDbLine
 10
193.5
 20
163.5
 30
0.0
 11
193.5
 21
162.1037678604128
 31
0.0
  0
LINE
  5
1D6
330
70
100
AcDbEntity
  8
Visible Narrow (ISO)
100
AcDbLine
 10
192.9999999999999
 20
135.0905816680961
 30
0.0
 11
193.5
 21
135.0905816680961
 31
0.0
  0
ELLIPSE
  5
1D7
330
70
100
AcDbEntity
  8
Visible Narrow (ISO)
100
AcDbEllipse
 10
193.5
 20
135.0905816680961
 30
0.0
 11
-0.4999999999999984
 21
0.0000000000000044
 31
0.0
210
0.0
220
0.0
230
1.0
 40
0.678957890222983
 41
0.0000000000000057
 42
1.570796326794901
  0
LINE
  5
1D8
330
70
100
AcDbEntity
  8
Visible (ISO)
100
AcDbLine
 10
192.9999999999999
 20
161.9094183319038
 30
0.0
 11
192.9999999999999
 21
135.0905816680961
 31
0.0
  0
LINE
  5
1D9
330
70
100
AcDbEntity
  8
Visible (ISO)
100
AcDbLine
 10
192.9999999999999
 20
134.0
 30
0.0
 11
192.9999999999999
 21
135.0905816680961
 31
0.0
  0
LINE
  5
1DA
330
70
100
AcDbEntity
  8
Visible Narrow (ISO)
100
AcDbLine
 10
193.5
 20
134.7511027229845
 30
0.0
 11
193.5
 21
133.632911392405
 31
0.0
  0
LINE
  5
1DB
330
70
100
AcDbEntity
  8
Visible Narrow (ISO)
100
AcDbLine
 10
205.5
 20
161.9629608743016
 30
0.0
 11
205.5
 21
134.7511027229846
 31
0.0
  0
LINE
  5
1DC
330
70
100
AcDbEntity
  8
Visible (ISO)
100
AcDbLine
 10
205.0
 20
136.2602083351063
 30
0.0
 11
205.0
 21
160.7397916648938
 31
0.0
  0
LINE
  5
1DD
330
70
100
AcDbEntity
  8
Visible Narrow (ISO)
100
AcDbLine
 10
192.5
 20
137.5
 30
0.0
 11
192.5
 21
159.5
 31
0.0
  0
LINE
  5
1DE
330
70
100
AcDbEntity
  8
Visible Narrow (ISO)
100
AcDbLine
 10
185.383925174702
 20
159.5
 30
0.0
 11
185.383925174702
 21
137.5
 31
0.0
  0
LINE
  5
1DF
330
70
100
AcDbEntity
  8
Visible Narrow (ISO)
100
AcDbLine
 10
184.914078864309
 20
137.1710100716628
 30
0.0
 11
184.914078864309
 21
159.8289899283371
 31
0.0
  0
LINE
  5
1E0
330
70
100
AcDbEntity
  8
Visible Narrow (ISO)
100
AcDbLine
 10
182.9697425412881
 20
165.1710100716628
 30
0.0
 11
182.9697425412881
 21
131.8289899283371
 31
0.0
  0
LINE
  5
1E1
330
70
100
AcDbEntity
  8
Visible Narrow (ISO)
100
AcDbLine
 10
182.4998962308951
 20
131.5
 30
0.0
 11
182.4998962308951
 21
165.5
 31
0.0
  0
LINE
  5
1E2
330
70
100
AcDbEntity
  8
Visible Narrow (ISO)
100
AcDbLine
 10
180.4999999999999
 20
165.5
 30
0.0
 11
180.4999999999999
 21
131.5
 31
0.0
  0
LINE
  5
1E3
330
70
100
AcDbEntity
  8
Visible (ISO)
100
AcDbLine
 10
180.0
 20
132.0
 30
0.0
 11
180.0
 21
165.0
 31
0.0
  0
ARC
  5
1E4
330
70
100
AcDbEntity
  8
Visible (ISO)
100
AcDbCircle
 10
239.7
 20
128.55
 30
0.0
 40
0.3
100
AcDbArc
 50
270.0
 51
0.0
  0
ARC
  5
1E5
330
70
100
AcDbEntity
  8
Visible (ISO)
100
AcDbCircle
 10
239.7
 20
168.45
 30
0.0
 40
0.3
100
AcDbArc
 50
0.0
 51
90.0
  0
ARC
  5
1E6
330
70
100
AcDbEntity
  8
Visible (ISO)
100
AcDbCircle
 10
205.5
 20
168.25
 30
0.0
 40
0.5
100
AcDbArc
 50
90.0
 51
180.0
  0
ARC
  5
1E7
330
70
100
AcDbEntity
  8
Visible (ISO)
100
AcDbCircle
 10
205.5
 20
128.75
 30
0.0
 40
0.5
100
AcDbArc
 50
180.0
 51
270.0
  0
ARC
  5
1E8
330
70
100
AcDbEntity
  8
Visible (ISO)
100
AcDbCircle
 10
192.5
 20
137.0
 30
0.0
 40
0.5
100
AcDbArc
 50
0.0
 51
90.0
  0
ARC
  5
1E9
330
70
100
AcDbEntity
  8
Visible (ISO)
100
AcDbCircle
 10
192.5
 20
160.0
 30
0.0
 40
0.5
100
AcDbArc
 50
270.0
 51
0.0
  0
ARC
  5
1EA
330
70
100
AcDbEntity
  8
Visible (ISO)
100
AcDbCircle
 10
185.383925174702
 20
137.0
 30
0.0
 40
0.5
100
AcDbArc
 50
90.0
 51
159.999999999997
  0
ARC
  5
1EB
330
70
100
AcDbEntity
  8
Visible (ISO)
100
AcDbCircle
 10
185.383925174702
 20
160.0
 30
0.0
 40
0.5
100
AcDbArc
 50
200.000000000001
 51
270.0
  0
ARC
  5
1EC
330
70
100
AcDbEntity
  8
Visible (ISO)
100
AcDbCircle
 10
182.4998962308951
 20
132.0
 30
0.0
 40
0.5
100
AcDbArc
 50
270.0
 51
339.9999999999971
  0
ARC
  5
1ED
330
70
100
AcDbEntity
  8
Visible (ISO)
100
AcDbCircle
 10
182.4998962308951
 20
165.0
 30
0.0
 40
0.5
100
AcDbArc
 50
19.99999999999912
 51
90.0
  0
ARC
  5
1EE
330
70
100
AcDbEntity
  8
Visible (ISO)
100
AcDbCircle
 10
180.4999999999999
 20
132.0
 30
0.0
 40
0.5
100
AcDbArc
 50
180.0
 51
270.0
  0
ARC
  5
1EF
330
70
100
AcDbEntity
  8
Visible (ISO)
100
AcDbCircle
 10
180.4999999999999
 20
165.0
 30
0.0
 40
0.5
100
AcDbArc
 50
90.0
 51
180.0
  0
LINE
  5
1F0
330
70
100
AcDbEntity
  8
Visible (ISO)
100
AcDbLine
 10
193.5
 20
163.5
 30
0.0
 11
205.0124695303947
 21
163.5
 31
0.0
  0
LINE
  5
1F1
330
70
100
AcDbEntity
  8
Visible (ISO)
100
AcDbLine
 10
205.0124694832197
 20
162.1037678404458
 30
0.0
 11
193.5
 21
162.1037678604128
 31
0.0
  0
LINE
  5
1F2
330
70
100
AcDbEntity
  8
Visible Narrow (ISO)
100
AcDbLine
 10
206.5
 20
168.75
 30
0.0
 11
206.5
 21
128.25
 31
0.0
  0
LINE
  5
1F3
330
70
100
AcDbEntity
  8
Visible Narrow (ISO)
100
AcDbLine
 10
207.4999999999999
 20
168.75
 30
0.0
 11
207.4999999999999
 21
128.25
 31
0.0
  0
LINE
  5
1F4
330
70
100
AcDbEntity
  8
Visible (ISO)
100
AcDbLine
 10
206.9999999999999
 20
168.2499999999999
 30
0.0
 11
206.9999999999999
 21
128.75
 31
0.0
  0
ARC
  5
1F5
330
70
100
AcDbEntity
  8
Visible (ISO)
100
AcDbCircle
 10
207.4999999999999
 20
168.25
 30
0.0
 40
0.4999999999999993
100
AcDbArc
 50
90.0
 51
180.0
  0
ARC
  5
1F6
330
70
100
AcDbEntity
  8
Visible (ISO)
100
AcDbCircle
 10
207.4999999999999
 20
128.75
 30
0.0
 40
0.4999999999999993
100
AcDbArc
 50
180.0
 51
270.0
  0
ARC
  5
1F7
330
70
100
AcDbEntity
  8
Visible (ISO)
100
AcDbCircle
 10
206.5
 20
168.25
 30
0.0
 40
0.4999999999999961
100
AcDbArc
 50
0.0
 51
90.0
  0
ARC
  5
1F8
330
70
100
AcDbEntity
  8
Visible (ISO)
100
AcDbCircle
 10
206.5
 20
128.75
 30
0.0
 40
0.4999999999999961
100
AcDbArc
 50
270.0
 51
0.0
  0
LINE
  5
1F9
330
70
100
AcDbEntity
  8
Visible (ISO)
100
AcDbLine
 10
238.0
 20
168.75
 30
0.0
 11
239.7
 21
168.75
 31
0.0
  0
LINE
  5
1FA
330
70
100
AcDbEntity
  8
Visible (ISO)
100
AcDbLine
 10
238.0
 20
128.25
 30
0.0
 11
239.7
 21
128.25
 31
0.0
  0
LINE
  5
1FB
330
70
100
AcDbEntity
  8
Visible (ISO)
100
AcDbLine
 10
206.5
 20
128.25
 30
0.0
 11
205.5
 21
128.25
 31
0.0
  0
LINE
  5
1FC
330
70
100
AcDbEntity
  8
Visible (ISO)
100
AcDbLine
 10
206.5
 20
168.75
 30
0.0
 11
205.5
 21
168.75
 31
0.0
  0
LINE
  5
1FD
330
70
100
AcDbEntity
  8
Visible (ISO)
100
AcDbLine
 10
209.0
 20
128.25
 30
0.0
 11
207.4999999999999
 21
128.25
 31
0.0
  0
LINE
  5
1FE
330
70
100
AcDbEntity
  8
Visible (ISO)
100
AcDbLine
 10
209.0
 20
168.75
 30
0.0
 11
207.4999999999999
 21
168.75
 31
0.0
  0
LINE
  5
1FF
330
70
100
AcDbEntity
  8
Visible (ISO)
100
AcDbLine
 10
185.383925174702
 20
159.5
 30
0.0
 11
192.5
 21
159.5
 31
0.0
  0
LINE
  5
200
330
70
100
AcDbEntity
  8
Visible (ISO)
100
AcDbLine
 10
185.383925174702
 20
137.5
 30
0.0
 11
192.5
 21
137.5
 31
0.0
  0
LINE
  5
201
330
70
100
AcDbEntity
  8
Visible (ISO)
100
AcDbLine
 10
184.914078864309
 20
137.1710100716628
 30
0.0
 11
182.9697425412881
 21
131.8289899283371
 31
0.0
  0
LINE
  5
202
330
70
100
AcDbEntity
  8
Visible (ISO)
100
AcDbLine
 10
184.914078864309
 20
159.8289899283371
 30
0.0
 11
182.9697425412881
 21
165.1710100716628
 31
0.0
  0
LINE
  5
203
330
70
100
AcDbEntity
  8
Visible (ISO)
100
AcDbLine
 10
180.4999999999999
 20
165.5
 30
0.0
 11
182.4998962308951
 21
165.5
 31
0.0
  0
LINE
  5
204
330
70
100
AcDbEntity
  8
Visible (ISO)
100
AcDbLine
 10
180.4999999999999
 20
131.5
 30
0.0
 11
182.4998962308951
 21
131.5
 31
0.0
  0
SPLINE
  5
205
330
70
100
AcDbEntity
  8
Visible (ISO)
100
AcDbSpline
210
0.0
220
0.0
230
1.0
 70
    28
 71
     2
 72
     6
 73
     3
 74
     0
 42
0.000000001
 43
0.0000000001
 40
0.0
 40
0.0
 40
0.0
 40
1.869046102516824
 40
1.869046102516824
 40
1.869046102516824
 10
132.6689866413667
 20
170.8903300253288
 30
0.0
 41
1.0
 10
140.7001758434705
 20
166.2535207775809
 30
0.0
 41
1.097560975609762
 10
148.7313650455757
 20
161.616711529833
 30
0.0
 41
1.0
  0
ARC
  5
206
330
70
100
AcDbEntity
  8
Visible (ISO)
100
AcDbCircle
 10
130.4501758434712
 20
148.5
 30
0.0
 40
22.49999999999999
100
AcDbArc
 50
84.34064672860179
 51
95.65935327139811
  0
SPLINE
  5
207
330
70
100
AcDbEntity
  8
Visible (ISO)
100
AcDbSpline
210
0.0
220
0.0
230
1.0
 70
    28
 71
     2
 72
     6
 73
     3
 74
     0
 42
0.000000001
 43
0.0000000001
 40
0.0
 40
0.0
 40
0.0
 40
1.869046102516828
 40
1.869046102516828
 40
1.869046102516828
 10
112.1689866413666
 20
161.616711529833
 30
0.0
 41
1.0
 10
120.2001758434706
 20
166.2535207775809
 30
0.0
 41
1.097560975609755
 10
128.2313650455757
 20
170.8903300253289
 30
0.0
 41
1.0
  0
ARC
  5
208
330
70
100
AcDbEntity
  8
Visible (ISO)
100
AcDbCircle
 10
130.4501758434713
 20
148.4999999999999
 30
0.0
 40
22.5000000000001
100
AcDbArc
 50
144.3406467286019
 51
155.659353271398
  0
SPLINE
  5
209
330
70
100
AcDbEntity
  8
Visible (ISO)
100
AcDbSpline
210
0.0
220
0.0
230
1.0
 70
    28
 71
     2
 72
     6
 73
     3
 74
     0
 42
0.000000001
 43
0.0000000001
 40
0.0
 40
0.0
 40
0.0
 40
1.869046102516825
 40
1.869046102516825
 40
1.869046102516825
 10
109.9501758434712
 20
139.2263815045043
 30
0.0
 41
1.0
 10
109.9501758434705
 20
148.5
 30
0.0
 41
1.097560975609755
 10
109.9501758434712
 20
157.7736184954956
 30
0.0
 41
1.0
  0
ARC
  5
20A
330
70
100
AcDbEntity
  8
Visible (ISO)
100
AcDbCircle
 10
130.4501758434711
 20
148.4999999999999
 30
0.0
 40
22.49999999999992
100
AcDbArc
 50
204.3406467286018
 51
215.6593532713981
  0
SPLINE
  5
20B
330
70
100
AcDbEntity
  8
Visible (ISO)
100
AcDbSpline
210
0.0
220
0.0
230
1.0
 70
    28
 71
     2
 72
     6
 73
     3
 74
     0
 42
0.000000001
 43
0.0000000001
 40
0.0
 40
0.0
 40
0.0
 40
1.86904610251682
 40
1.86904610251682
 40
1.86904610251682
 10
128.2313650455757
 20
126.1096699746711
 30
0.0
 41
1.0
 10
120.2001758434706
 20
130.746479222419
 30
0.0
 41
1.097560975609759
 10
112.1689866413667
 20
135.3832884701668
 30
0.0
 41
1.0
  0
ARC
  5
20C
330
70
100
AcDbEntity
  8
Visible (ISO)
100
AcDbCircle
 10
130.4501758434712
 20
148.4999999999996
 30
0.0
 40
22.49999999999968
100
AcDbArc
 50
264.3406467286018
 51
275.6593532713983
  0
SPLINE
  5
20D
330
70
100
AcDbEntity
  8
Visible (ISO)
100
AcDbSpline
210
0.0
220
0.0
230
1.0
 70
    28
 71
     2
 72
     6
 73
     3
 74
     0
 42
0.000000001
 43
0.0000000001
 40
0.0
 40
0.0
 40
0.0
 40
1.86904610251682
 40
1.86904610251682
 40
1.86904610251682
 10
148.7313650455757
 20
135.3832884701668
 30
0.0
 41
1.0
 10
140.7001758434705
 20
130.746479222419
 30
0.0
 41
1.097560975609757
 10
132.6689866413667
 20
126.1096699746711
 30
0.0
 41
1.0
  0
ARC
  5
20E
330
70
100
AcDbEntity
  8
Visible (ISO)
100
AcDbCircle
 10
130.4501758434709
 20
148.5000000000001
 30
0.0
 40
22.50000000000028
100
AcDbArc
 50
324.3406467286019
 51
335.6593532713982
  0
SPLINE
  5
20F
330
70
100
AcDbEntity
  8
Visible (ISO)
100
AcDbSpline
210
0.0
220
0.0
230
1.0
 70
    28
 71
     2
 72
     6
 73
     3
 74
     0
 42
0.000000001
 43
0.0000000001
 40
0.0
 40
0.0
 40
0.0
 40
1.86904610251682
 40
1.86904610251682
 40
1.86904610251682
 10
150.9501758434712
 20
157.7736184954956
 30
0.0
 41
1.0
 10
150.9501758434706
 20
148.5
 30
0.0
 41
1.097560975609755
 10
150.9501758434712
 20
139.2263815045043
 30
0.0
 41
1.0
  0
ARC
  5
210
330
70
100
AcDbEntity
  8
Visible (ISO)
100
AcDbCircle
 10
130.4501758434714
 20
148.5000000000001
 30
0.0
 40
22.49999999999979
100
AcDbArc
 50
24.34064672860186
 51
35.65935327139828
  0
SPLINE
  5
211
330
70
100
AcDbEntity
  8
Visible (ISO)
100
AcDbSpline
210
0.0
220
0.0
230
1.0
 70
     8
 71
     3
 72
    16
 73
    12
 74
     0
 42
0.000000001
 43
0.0000000001
 40
0.0
 40
0.0
 40
0.0
 40
0.0
 40
0.0081563631666438
 40
0.0081563631666438
 40
0.0269538414042109
 40
0.0269538414042109
 40
0.0403582634218257
 40
0.0403582634218257
 40
0.0535176703113203
 40
0.0535176703113203
 40
0.0537558782039117
 40
0.0537558782039117
 40
0.0537558782039117
 40
0.0537558782039117
 10
144.0539437038824
 20
163.5
 30
0.0
 10
144.0539437038824
 20
163.5
 30
0.0
 10
144.0529230954493
 20
163.5009258076206
 30
0.0
 10
144.0460472276775
 20
163.5071590647517
 30
0.0
 10
144.0356352497723
 20
163.5166002237662
 30
0.0
 10
144.0074993794354
 20
163.541998786273
 30
0.0
 10
143.9927827771746
 20
163.5552605181863
 30
0.0
 10
143.9575131992129
 20
163.5869111708079
 30
0.0
 10
143.9373834024389
 20
163.6049223788457
 30
0.0
 10
143.9139716804175
 20
163.6257628558549
 30
0.0
 10
143.9135546056671
 20
163.6261340936333
 30
0.0
 10
143.9131367177713
 20
163.6265060240964
 30
0.0
  0
LINE
  5
212
330
70
100
AcDbEntity
  8
Visible (ISO)
100
AcDbLine
 10
144.053943703879
 20
163.5
 30
0.0
 11
138.4501758434662
 21
163.5
 31
0.0
  0
LINE
  5
213
330
70
100
AcDbEntity
  8
Visible (ISO)
100
AcDbLine
 10
122.4501758434662
 20
163.5
 30
0.0
 11
117.0407575115623
 21
163.5
 31
0.0
  0
ARC
  5
214
330
70
100
AcDbEntity
  8
Visible (ISO)
100
AcDbCircle
 10
117.0407575115623
 20
163.0
 30
0.0
 40
0.5000000000000095
100
AcDbArc
 50
90.0
 51
132.7622624843916
  0
SPLINE
  5
215
330
70
100
AcDbEntity
  8
Visible (ISO)
100
AcDbSpline
210
0.0
220
0.0
230
1.0
 70
     8
 71
     3
 72
    14
 73
    10
 74
     0
 42
0.000000001
 43
0.0000000001
 40
-0.0002388074862323
 40
-0.0002388074862323
 40
-0.0002388074862323
 40
-0.0002388074862323
 40
0.0
 40
0.0
 40
0.0163186647857146
 40
0.0163186647857146
 40
0.0335872054116036
 40
0.0335872054116036
 40
0.0537498430958628
 40
0.0537498430958628
 40
0.0537498430958628
 40
0.0537498430958628
 10
145.5766818675662
 20
161.9629608743016
 30
0.0
 10
145.5763099361841
 20
161.9633787632299
 30
0.0
 10
145.5759387002404
 20
161.963795835919
 30
0.0
 10
145.5502475535933
 20
161.9926566908528
 30
0.0
 10
145.5286586533912
 20
162.01675148518
 30
0.0
 10
145.4918801055781
 20
162.057670635467
 30
0.0
 10
145.4774752998629
 20
162.073613865895
 30
0.0
 10
145.4557930927316
 20
162.0975826553472
 30
0.0
 10
145.4501758434697
 20
162.1037678604128
 30
0.0
 10
145.4501758434696
 20
162.1037678604128
 30
0.0
  0
ARC
  5
216
330
70
100
AcDbEntity
  8
Visible (ISO)
100
AcDbCircle
 10
144.9501758434662
 20
135.0905816680961
 30
0.0
 40
0.5000000000000128
100
AcDbArc
 50
317.237737515607
 51
0.0
  0
LINE
  5
217
330
70
100
AcDbEntity
  8
Visible (ISO)
100
AcDbLine
 10
145.4501758434662
 20
135.0905816680961
 30
0.0
 11
145.4501758434662
 21
140.5
 31
0.0
  0
LINE
  5
218
330
70
100
AcDbEntity
  8
Visible (ISO)
100
AcDbLine
 10
145.4501758434662
 20
156.5
 30
0.0
 11
145.4501758434662
 21
162.1037678604128
 31
0.0
  0
SPLINE
  5
219
330
70
100
AcDbEntity
  8
Visible (ISO)
100
AcDbSpline
210
0.0
220
0.0
230
1.0
 70
     8
 71
     3
 72
     8
 73
     4
 74
     0
 42
0.000000001
 43
0.0000000001
 40
-0.1483370453176767
 40
-0.1483370453176767
 40
-0.1483370453176767
 40
-0.1483370453176767
 40
-0.1473388426070215
 40
-0.1473388426070215
 40
-0.1473388426070215
 40
-0.1473388426070215
 10
115.4501758434696
 20
162.1037678604128
 30
0.0
 10
115.4486906649913
 20
162.1021302496123
 30
0.0
 10
115.4472206858951
 20
162.1005088701682
 30
0.0
 10
115.4457209038075
 20
162.0988540680326
 30
0.0
  0
SPLINE
  5
21A
330
70
100
AcDbEntity
  8
Visible (ISO)
100
AcDbSpline
210
0.0
220
0.0
230
1.0
 70
     8
 71
     3
 72
    12
 73
     8
 74
     0
 42
0.000000001
 43
0.0000000001
 40
-0.1473388426070215
 40
-0.1473388426070215
 40
-0.1473388426070215
 40
-0.1473388426070215
 40
-0.1360509133673767
 40
-0.1360509133673767
 40
-0.0774400999889063
 40
-0.0774400999889063
 40
-0.0000000000000003
 40
-0.0000000000000003
 40
-0.0000000000000003
 40
-0.0000000000000003
 10
115.4457209038075
 20
162.0988540680326
 30
0.0
 10
115.4287320649663
 20
162.0801092336816
 30
0.0
 10
115.4108508377796
 20
162.0603096159237
 30
0.0
 10
115.2942226524578
 20
161.9305985032011
 30
0.0
 10
115.175210242152
 20
161.7956193754709
 30
0.0
 10
114.8908743905848
 20
161.4627439816551
 30
0.0
 10
114.7217955751798
 20
161.2573744812479
 30
0.0
 10
114.5577707801786
 20
161.0496598083086
 30
0.0
  0
SPLINE
  5
21B
330
70
100
AcDbEntity
  8
Visible (ISO)
100
AcDbSpline
210
0.0
220
0.0
230
1.0
 70
     8
 71
     3
 72
     8
 73
     4
 74
     0
 42
0.000000001
 43
0.0000000001
 40
-0.2022974193000965
 40
-0.2022974193000965
 40
-0.2022974193000965
 40
-0.2022974193000965
 40
-0.1483370453176767
 40
-0.1483370453176767
 40
-0.1483370453176767
 40
-0.1483370453176767
 10
115.5830872358745
 20
162.2488972770153
 30
0.0
 10
115.5830872358746
 20
162.2488972770153
 30
0.0
 10
115.5304609251128
 20
162.1922930570351
 30
0.0
 10
115.4501758434696
 20
162.1037678604128
 30
0.0
  0
SPLINE
  5
21C
330
70
100
AcDbEntity
  8
Visible (ISO)
100
AcDbSpline
210
0.0
220
0.0
230
1.0
 70
     8
 71
     3
 72
     8
 73
     4
 74
     0
 42
0.000000001
 43
0.0000000001
 40
-0.0549563529817894
 40
-0.0549563529817894
 40
-0.0549563529817894
 40
-0.0549563529817894
 40
-0.053958139447959
 40
-0.053958139447959
 40
-0.053958139447959
 40
-0.053958139447959
 10
115.4457208777331
 20
134.9011459607367
 30
0.0
 10
115.4472152932267
 20
134.8994970798892
 30
0.0
 10
115.4486986744659
 20
134.8978609188551
 30
0.0
 10
115.450175843454
 20
134.8962321396045
 30
0.0
  0
SPLINE
  5
21D
330
70
100
AcDbEntity
  8
Visible (ISO)
100
AcDbSpline
210
0.0
220
0.0
230
1.0
 70
     8
 71
     3
 72
    12
 73
     8
 74
     0
 42
0.000000001
 43
0.0000000001
 40
-0.053958139447959
 40
-0.053958139447959
 40
-0.053958139447959
 40
-0.053958139447959
 40
-0.0327364477879899
 40
-0.0327364477879899
 40
-0.0125909414569192
 40
-0.0125909414569192
 40
0.0
 40
0.0
 40
0.0
 40
0.0
 10
115.450175843454
 20
134.8962321396045
 30
0.0
 10
115.4815793826466
 20
134.8616054764089
 30
0.0
 10
115.5090264377702
 20
134.8315845967068
 30
0.0
 10
115.5512274176633
 20
134.7856002806174
 30
0.0
 10
115.5664701521419
 20
134.7690873031138
 30
0.0
 10
115.5803557877403
 20
134.7540546537669
 30
0.0
 10
115.5830872358746
 20
134.7511027229846
 30
0.0
 10
115.5830872358745
 20
134.7511027229846
 30
0.0
  0
SPLINE
  5
21E
330
70
100
AcDbEntity
  8
Visible (ISO)
100
AcDbSpline
210
0.0
220
0.0
230
1.0
 70
     8
 71
     3
 72
    16
 73
    12
 74
     0
 42
0.000000001
 43
0.0000000001
 40
-0.2022941683239722
 40
-0.2022941683239722
 40
-0.2022941683239722
 40
-0.2022941683239722
 40
-0.171338436029989
 40
-0.171338436029989
 40
-0.1225702517452566
 40
-0.1225702517452566
 40
-0.085056263833924
 40
-0.085056263833924
 40
-0.0599593339955214
 40
-0.0599593339955214
 40
-0.0549563529817894
 40
-0.0549563529817894
 40
-0.0549563529817894
 40
-0.0549563529817894
 10
114.5577707801786
 20
135.9503401916913
 30
0.0
 10
114.6233376847198
 20
135.8673087931011
 30
0.0
 10
114.689569037252
 20
135.7847809472294
 30
0.0
 10
114.8604351540766
 20
135.5752237038631
 30
0.0
 10
114.9654218485862
 20
135.44973962737
 30
0.0
 10
115.1451529680024
 20
135.239788316948
 30
0.0
 10
115.2213231778846
 20
135.1524987507783
 30
0.0
 10
115.3386642196332
 20
135.0200241673736
 30
0.0
 10
115.3830431328637
 20
134.9704951379
 30
0.0
 10
115.4305345348748
 20
134.9179157104865
 30
0.0
 10
115.4382309649162
 20
134.9094100438158
 30
0.0
 10
115.4457208777331
 20
134.9011459607367
 30
0.0
  0
ARC
  5
21F
330
70
100
AcDbEntity
  8
Visible (ISO)
100
AcDbCircle
 10
130.4501758434697
 20
148.5
 30
0.0
 40
20.24999999999999
100
AcDbArc
 50
141.7031207022978
 51
218.2968792977022
  0
ARC
  5
220
330
70
100
AcDbEntity
  8
Visible (ISO)
100
AcDbCircle
 10
115.9501758434662
 20
161.9094183319038
 30
0.0
 40
0.5000000000000128
100
AcDbArc
 50
137.2377375156054
 51
180.0
  0
ARC
  5
221
330
70
100
AcDbEntity
  8
Visible (ISO)
100
AcDbCircle
 10
130.4501758434698
 20
148.5
 30
0.0
 40
20.25
100
AcDbArc
 50
48.33013427586561
 51
132.7559025869374
  0
ARC
  5
222
330
70
100
AcDbEntity
  8
Visible (ISO)
100
AcDbCircle
 10
115.9501758434662
 20
135.0905816680961
 30
0.0
 40
0.5000000000000138
100
AcDbArc
 50
180.0
 51
222.762262484393
  0
SPLINE
  5
223
330
70
100
AcDbEntity
  8
Visible (ISO)
100
AcDbSpline
210
0.0
220
0.0
230
1.0
 70
     8
 71
     3
 72
     8
 73
     4
 74
     0
 42
0.000000001
 43
0.0000000001
 40
-0.1483370453176763
 40
-0.1483370453176763
 40
-0.1483370453176763
 40
-0.1483370453176763
 40
-0.1473388426070212
 40
-0.1473388426070212
 40
-0.1473388426070212
 40
-0.1473388426070212
 10
116.8464079830568
 20
133.4999999999999
 30
0.0
 10
116.8480455938573
 20
133.4985148215215
 30
0.0
 10
116.8496669733014
 20
133.4970448424255
 30
0.0
 10
116.8513217754369
 20
133.4955450603378
 30
0.0
  0
SPLINE
  5
224
330
70
100
AcDbEntity
  8
Visible (ISO)
100
AcDbSpline
210
0.0
220
0.0
230
1.0
 70
     8
 71
     3
 72
    12
 73
     8
 74
     0
 42
0.000000001
 43
0.0000000001
 40
-0.1473388426070212
 40
-0.1473388426070212
 40
-0.1473388426070212
 40
-0.1473388426070212
 40
-0.1360509133673772
 40
-0.1360509133673772
 40
-0.0774400999889059
 40
-0.0774400999889059
 40
0.0
 40
0.0
 40
0.0
 40
0.0
 10
116.8513217754369
 20
133.4955450603378
 30
0.0
 10
116.8700666097881
 20
133.4785562214966
 30
0.0
 10
116.8898662275458
 20
133.4606749943099
 30
0.0
 10
117.0195773402685
 20
133.3440468089881
 30
0.0
 10
117.1545564679988
 20
133.2250343986823
 30
0.0
 10
117.4874318618146
 20
132.940698547115
 30
0.0
 10
117.6928013622218
 20
132.77161973171
 30
0.0
 10
117.9005160351611
 20
132.6075949367088
 30
0.0
  0
SPLINE
  5
225
330
70
100
AcDbEntity
  8
Visible (ISO)
100
AcDbSpline
210
0.0
220
0.0
230
1.0
 70
     8
 71
     3
 72
     8
 73
     4
 74
     0
 42
0.000000001
 43
0.0000000001
 40
-0.2022974193000961
 40
-0.2022974193000961
 40
-0.2022974193000961
 40
-0.2022974193000961
 40
-0.1483370453176763
 40
-0.1483370453176763
 40
-0.1483370453176763
 40
-0.1483370453176763
 10
116.7012785664541
 20
133.632911392405
 30
0.0
 10
116.7012785664541
 20
133.632911392405
 30
0.0
 10
116.7578827864344
 20
133.5802850816432
 30
0.0
 10
116.8464079830568
 20
133.4999999999999
 30
0.0
  0
ARC
  5
226
330
70
100
AcDbEntity
  8
Visible (ISO)
100
AcDbCircle
 10
130.4501758434651
 20
148.500000000001
 30
0.0
 40
20.24999999999848
100
AcDbArc
 50
132.7622624843937
 51
137.2377375156061
  0
ARC
  5
227
330
70
100
AcDbEntity
  8
Visible (ISO)
100
AcDbCircle
 10
117.0407575115623
 20
134.0
 30
0.0
 40
0.5000000000000128
100
AcDbArc
 50
227.2377375156069
 51
270.0
  0
SPLINE
  5
228
330
70
100
AcDbEntity
  8
Visible (ISO)
100
AcDbSpline
210
0.0
220
0.0
230
1.0
 70
     8
 71
     3
 72
     8
 73
     4
 74
     0
 42
0.000000001
 43
0.0000000001
 40
-0.0549563529817896
 40
-0.0549563529817896
 40
-0.0549563529817896
 40
-0.0549563529817896
 40
-0.0539581394479591
 40
-0.0539581394479591
 40
-0.0539581394479591
 40
-0.0539581394479591
 10
144.0490298827328
 20
133.4955450342635
 30
0.0
 10
144.0506787635804
 20
133.4970394497571
 30
0.0
 10
144.0523149246145
 20
133.4985228309962
 30
0.0
 10
144.0539437038651
 20
133.4999999999843
 30
0.0
  0
SPLINE
  5
229
330
70
100
AcDbEntity
  8
Visible (ISO)
100
AcDbSpline
210
0.0
220
0.0
230
1.0
 70
     8
 71
     3
 72
    12
 73
     8
 74
     0
 42
0.000000001
 43
0.0000000001
 40
-0.0539581394479591
 40
-0.0539581394479591
 40
-0.0539581394479591
 40
-0.0539581394479591
 40
-0.0327364477879903
 40
-0.0327364477879903
 40
-0.0125909414569194
 40
-0.0125909414569194
 40
0.0
 40
0.0
 40
0.0
 40
0.0
 10
144.0539437038651
 20
133.4999999999843
 30
0.0
 10
144.0885703670605
 20
133.531403539177
 30
0.0
 10
144.1185912467628
 20
133.5588505943006
 30
0.0
 10
144.1645755628521
 20
133.6010515741937
 30
0.0
 10
144.1810885403557
 20
133.6162943086723
 30
0.0
 10
144.1961211897026
 20
133.6301799442707
 30
0.0
 10
144.1990731204849
 20
133.632911392405
 30
0.0
 10
144.1990731204848
 20
133.632911392405
 30
0.0
  0
SPLINE
  5
22A
330
70
100
AcDbEntity
  8
Visible (ISO)
100
AcDbSpline
210
0.0
220
0.0
230
1.0
 70
     8
 71
     3
 72
    16
 73
    12
 74
     0
 42
0.000000001
 43
0.0000000001
 40
-0.2022941683239722
 40
-0.2022941683239722
 40
-0.2022941683239722
 40
-0.2022941683239722
 40
-0.1713384360299893
 40
-0.1713384360299893
 40
-0.1225702517452569
 40
-0.1225702517452569
 40
-0.0850562638339243
 40
-0.0850562638339243
 40
-0.0599593339955219
 40
-0.0599593339955219
 40
-0.0549563529817896
 40
-0.0549563529817896
 40
-0.0549563529817896
 40
-0.0549563529817896
 10
142.9998356517785
 20
132.6075949367088
 30
0.0
 10
143.0828670503686
 20
132.67316184125
 30
0.0
 10
143.1653948962403
 20
132.7393931937823
 30
0.0
 10
143.3749521396066
 20
132.9102593106068
 30
0.0
 10
143.5004362160996
 20
133.0152460051164
 30
0.0
 10
143.7103875265217
 20
133.1949771245326
 30
0.0
 10
143.7976770926914
 20
133.2711473344148
 30
0.0
 10
143.9301516760961
 20
133.3884883761635
 30
0.0
 10
143.9796807055697
 20
133.432867289394
 30
0.0
 10
144.0322601329831
 20
133.4803586914051
 30
0.0
 10
144.0407657996538
 20
133.4880551214465
 30
0.0
 10
144.0490298827328
 20
133.4955450342635
 30
0.0
  0
ARC
  5
22B
330
70
100
AcDbEntity
  8
Visible (ISO)
100
AcDbCircle
 10
130.4501758434698
 20
148.5
 30
0.0
 40
20.24999999999999
100
AcDbArc
 50
231.7031207022977
 51
308.2968792977023
  0
SPLINE
  5
22C
330
70
100
AcDbEntity
  8
Visible (ISO)
100
AcDbSpline
210
0.0
220
0.0
230
1.0
 70
     8
 71
     3
 72
    18
 73
    14
 74
     0
 42
0.000000001
 43
0.0000000001
 40
-0.0815340497616671
 40
-0.0815340497616671
 40
-0.0815340497616671
 40
-0.0815340497616671
 40
-0.0811951637395625
 40
-0.0811951637395625
 40
-0.0693178817814584
 40
-0.0693178817814584
 40
-0.0575189319196278
 40
-0.0575189319196278
 40
-0.0372296817622698
 40
-0.0372296817622698
 40
-0.0182974817035041
 40
-0.0182974817035041
 40
0.0
 40
0.0
 40
0.0
 40
0.0
 10
143.85959417537
 20
163.0
 30
0.0
 10
143.8600070007112
 20
163.001054428133
 30
0.0
 10
143.8604198090376
 20
163.0021088615023
 30
0.0
 10
143.8752998927717
 20
163.0401187082256
 30
0.0
 10
143.8897162393962
 20
163.0770044983882
 30
0.0
 10
143.9178239322205
 20
163.1490332224877
 30
0.0
 10
143.9314735870236
 20
163.1840684791391
 30
0.0
 10
143.9669137543628
 20
163.2751620573936
 30
0.0
 10
143.9872595724736
 20
163.3276044858999
 30
0.0
 10
144.0201100602235
 20
163.4124155430484
 30
0.0
 10
144.0327578131142
 20
163.4451389768373
 30
0.0
 10
144.0496403583849
 20
163.4888444044141
 30
0.0
 10
144.053943703879
 20
163.4999999999999
 30
0.0
 10
144.053943703879
 20
163.4999999999999
 30
0.0
  0
ARC
  5
22D
330
70
100
AcDbEntity
  8
Visible (ISO)
100
AcDbCircle
 10
143.8595941753701
 20
134.0
 30
0.0
 40
0.5000000000000138
100
AcDbArc
 50
270.0
 51
312.762262484393
  0
SPLINE
  5
22E
330
70
100
AcDbEntity
  8
Visible (ISO)
100
AcDbSpline
210
0.0
220
0.0
230
1.0
 70
     8
 71
     3
 72
    18
 73
    14
 74
     0
 42
0.000000001
 43
0.0000000001
 40
-0.000339708567106
 40
-0.000339708567106
 40
-0.000339708567106
 40
-0.000339708567106
 40
0.0
 40
0.0
 40
0.0119061105255289
 40
0.0119061105255289
 40
0.0237336988272448
 40
0.0237336988272448
 40
0.0440721951020693
 40
0.0440721951020693
 40
0.0630503474429927
 40
0.0630503474429927
 40
0.0813922408387128
 40
0.0813922408387128
 40
0.0813922408387128
 40
0.0813922408387128
 10
144.9501758434661
 20
161.9094183319038
 30
0.0
 10
144.9512302715993
 20
161.9098311572451
 30
0.0
 10
144.9522847049678
 20
161.9102439655719
 30
0.0
 10
144.9902945516991
 20
161.9251240493031
 30
0.0
 10
145.0271803418551
 20
161.9395403959305
 30
0.0
 10
145.0992090659538
 20
161.9676480887544
 30
0.0
 10
145.1342443226051
 20
161.9812977435575
 30
0.0
 10
145.2253379008596
 20
162.0167379108967
 30
0.0
 10
145.277780329366
 20
162.0370837290075
 30
0.0
 10
145.3625913865145
 20
162.0699342167574
 30
0.0
 10
145.3953148203035
 20
162.082581969648
 30
0.0
 10
145.4390202478803
 20
162.0994645149187
 30
0.0
 10
145.4501758434662
 20
162.1037678604128
 30
0.0
 10
145.4501758434662
 20
162.1037678604128
 30
0.0
  0
ARC
  5
22F
330
70
100
AcDbEntity
  8
Visible (ISO)
100
AcDbCircle
 10
130.4501758434661
 20
148.4999999999999
 30
0.0
 40
20.25000000000011
100
AcDbArc
 50
42.20544640373236
 51
47.79455359626775
  0
ARC
  5
230
330
70
100
AcDbEntity
  8
Visible (ISO)
100
AcDbCircle
 10
130.4501758434673
 20
148.4999999999988
 30
0.0
 40
20.24999999999839
100
AcDbArc
 50
312.7622624843937
 51
317.2377375156061
  0
ARC
  5
231
330
70
100
AcDbEntity
  8
Visible (ISO)
100
AcDbCircle
 10
130.4501758434698
 20
148.5
 30
0.0
 40
20.25
100
AcDbArc
 50
317.2440974129301
 51
41.66986572413438
  0
LINE
  5
232
330
70
100
AcDbEntity
  8
Visible (ISO)
100
AcDbLine
 10
117.0407575115623
 20
133.5
 30
0.0
 11
122.4501758434662
 21
133.5
 31
0.0
  0
LINE
  5
233
330
70
100
AcDbEntity
  8
Visible (ISO)
100
AcDbLine
 10
138.4501758434662
 20
133.5
 30
0.0
 11
143.8595941753701
 21
133.5
 31
0.0
  0
ARC
  5
234
330
70
100
AcDbEntity
  8
Visible (ISO)
100
AcDbCircle
 10
130.450175843465
 20
148.4999999999988
 30
0.0
 40
20.24999999999839
100
AcDbArc
 50
222.7622624843936
 51
227.2377375156061
  0
LINE
  5
235
330
70
100
AcDbEntity
  8
Visible (ISO)
100
AcDbLine
 10
115.4501758434662
 20
161.9094183319038
 30
0.0
 11
115.4501758434662
 21
156.5
 31
0.0
  0
LINE
  5
236
330
70
100
AcDbEntity
  8
Visible (ISO)
100
AcDbLine
 10
115.4501758434662
 20
140.5
 30
0.0
 11
115.4501758434662
 21
135.0905816680961
 31
0.0
  0
CIRCLE
  5
237
330
70
100
AcDbEntity
  8
Visible (ISO)
100
AcDbCircle
 10
130.4501758434623
 20
148.5
 30
0.0
 40
17.0
  0
LINE
  5
238
330
70
100
AcDbEntity
  8
Visible (ISO)
100
AcDbLine
 10
116.7012785664544
 20
163.3670886075949
 30
0.0
 11
116.7029322604326
 21
163.3686110412029
 31
0.0
  0
LINE
  5
239
330
70
100
AcDbEntity
  8
Visible (ISO)
100
AcDbLine
 10
145.3187868846413
 20
134.7527564169285
 30
0.0
 11
145.3172644510647
 21
134.7511027229846
 31
0.0
  0
LINE
  5
23A
330
70
100
AcDbEntity
  8
Hidden (ISO)
 48
25.80228996276856
100
AcDbLine
 10
138.4501758434662
 20
163.5
 30
0.0
 11
122.4501758434662
 21
163.5
 31
0.0
  0
LINE
  5
23B
330
70
100
AcDbEntity
  8
Hidden (ISO)
 48
25.80228996276856
100
AcDbLine
 10
145.4501758434662
 20
140.5
 30
0.0
 11
145.4501758434662
 21
156.5
 31
0.0
  0
LINE
  5
23C
330
70
100
AcDbEntity
  8
Hidden (ISO)
 48
25.80228996276856
100
AcDbLine
 10
122.4501758434662
 20
133.5
 30
0.0
 11
138.4501758434662
 21
133.5
 31
0.0
  0
LINE
  5
23D
330
70
100
AcDbEntity
  8
Hidden (ISO)
 48
25.80228996276856
100
AcDbLine
 10
115.4501758434662
 20
156.5
 30
0.0
 11
115.4501758434662
 21
140.5
 31
0.0
  0
CIRCLE
  5
23E
330
70
100
AcDbEntity
  8
Hidden (ISO)
 48
25.72105216979981
100
AcDbCircle
 10
130.4501758434638
 20
148.5
 30
0.0
 40
11.0
  0
CIRCLE
  5
23F
330
70
100
AcDbEntity
  8
Hidden (ISO)
 48
25.01469802856445
100
AcDbCircle
 10
130.4501758434702
 20
148.5
 30
0.0
 40
19.74999999999998
  0
CIRCLE
  5
240
330
70
100
AcDbEntity
  8
Visible (ISO)
100
AcDbCircle
 10
130.4501758434652
 20
148.5
 30
0.0
 40
8.5
  0
CIRCLE
  5
241
330
70
100
AcDbEntity
  8
Visible (ISO)
100
AcDbCircle
 10
130.4501758434622
 20
148.5
 30
0.0
 40
8.749999999999998
  0
LINE
  5
242
330
70
100
AcDbEntity
  8
Visible (ISO)
100
AcDbLine
 10
238.0
 20
227.0296978699265
 30
0.0
 11
238.0
 21
186.5296978699264
 31
0.0
  0
SPLINE
  5
243
330
70
100
AcDbEntity
  8
Visible (ISO)
100
AcDbSpline
210
0.0
220
0.0
230
1.0
 70
    12
 71
     2
 72
     6
 73
     3
 74
     0
 42
0.000000001
 43
0.0000000001
 40
0.0
 40
0.0
 40
0.0
 40
1.86904610251682
 40
1.86904610251682
 40
1.86904610251682
 10
236.7009618943233
 20
188.4985086678259
 30
0.0
 41
1.0
 10
238.9077229232259
 20
196.5296978699318
 30
0.0
 41
1.097560975609753
 10
236.7009618943233
 20
204.5608870720376
 30
0.0
 41
1.0
  0
LINE
  5
244
330
70
100
AcDbEntity
  8
Visible (ISO)
100
AcDbLine
 10
236.7009618943233
 20
188.4985086678259
 30
0.0
 11
236.7009618943233
 21
186.2796978699293
 31
0.0
  0
LINE
  5
245
330
70
100
AcDbEntity
  8
Visible (ISO)
100
AcDbLine
 10
237.8556624327026
 20
186.2796978699265
 30
0.0
 11
236.7009618943233
 21
186.2796978699293
 31
0.0
  0
LINE
  5
246
330
70
100
AcDbEntity
  8
Visible (ISO)
100
AcDbLine
 10
236.7009618943233
 20
227.2796978699293
 30
0.0
 11
237.8556624327026
 21
227.2796978699265
 31
0.0
  0
LINE
  5
247
330
70
100
AcDbEntity
  8
Visible (ISO)
100
AcDbLine
 10
236.7009618943233
 20
227.2796978699293
 30
0.0
 11
236.7009618943233
 21
225.0608870720349
 31
0.0
  0
SPLINE
  5
248
330
70
100
AcDbEntity
  8
Visible (ISO)
100
AcDbSpline
210
0.0
220
0.0
230
1.0
 70
    12
 71
     2
 72
     6
 73
     3
 74
     0
 42
0.000000001
 43
0.0000000001
 40
0.0
 40
0.0
 40
0.0
 40
1.869046102516823
 40
1.869046102516823
 40
1.869046102516823
 10
236.7009618943233
 20
208.9985086678287
 30
0.0
 41
1.0
 10
238.9077229232259
 20
217.0296978699318
 30
0.0
 41
1.097560975609757
 10
236.7009618943233
 20
225.0608870720349
 30
0.0
 41
1.0
  0
LINE
  5
249
330
70
100
AcDbEntity
  8
Visible (ISO)
100
AcDbLine
 10
236.7009618943233
 20
208.9985086678286
 30
0.0
 11
236.7009618943233
 21
204.5608870720376
 31
0.0
  0
LINE
  5
24A
330
70
100
AcDbEntity
  8
Visible (ISO)
100
AcDbLine
 10
209.0
 20
186.5296978699264
 30
0.0
 11
209.0
 21
227.0296978699265
 31
0.0
  0
SPLINE
  5
24B
330
70
100
AcDbEntity
  8
Visible (ISO)
100
AcDbSpline
210
0.0
220
0.0
230
1.0
 70
    12
 71
     2
 72
     6
 73
     3
 74
     0
 42
0.000000001
 43
0.0000000001
 40
0.0
 40
0.0
 40
0.0
 40
1.869046102516824
 40
1.869046102516824
 40
1.869046102516824
 10
210.2990381056766
 20
204.5608870720376
 30
0.0
 41
1.0
 10
208.0922770767741
 20
196.5296978699318
 30
0.0
 41
1.097560975609762
 10
210.2990381056767
 20
188.4985086678259
 30
0.0
 41
1.0
  0
LINE
  5
24C
330
70
100
AcDbEntity
  8
Visible (ISO)
100
AcDbLine
 10
210.2990381056766
 20
204.5608870720376
 30
0.0
 11
210.2990381056766
 21
208.9985086678286
 31
0.0
  0
SPLINE
  5
24D
330
70
100
AcDbEntity
  8
Visible (ISO)
100
AcDbSpline
210
0.0
220
0.0
230
1.0
 70
    12
 71
     2
 72
     6
 73
     3
 74
     0
 42
0.000000001
 43
0.0000000001
 40
0.0
 40
0.0
 40
0.0
 40
1.869046102516828
 40
1.869046102516828
 40
1.869046102516828
 10
210.2990381056766
 20
225.0608870720349
 30
0.0
 41
1.0
 10
208.092277076774
 20
217.0296978699318
 30
0.0
 41
1.097560975609755
 10
210.2990381056766
 20
208.9985086678286
 30
0.0
 41
1.0
  0
LINE
  5
24E
330
70
100
AcDbEntity
  8
Visible (ISO)
100
AcDbLine
 10
210.2990381056766
 20
225.0608870720349
 30
0.0
 11
210.2990381056766
 21
227.2796978699293
 31
0.0
  0
LINE
  5
24F
330
70
100
AcDbEntity
  8
Visible (ISO)
100
AcDbLine
 10
210.2990381056766
 20
186.2796978699293
 30
0.0
 11
210.2990381056766
 21
188.4985086678259
 31
0.0
  0
LINE
  5
250
330
70
100
AcDbEntity
  8
Visible (ISO)
100
AcDbLine
 10
238.0
 20
186.5296978699264
 30
0.0
 11
237.8556624327026
 21
186.2796978699265
 31
0.0
  0
LINE
  5
251
330
70
100
AcDbEntity
  8
Visible (ISO)
100
AcDbLine
 10
238.0
 20
227.0296978699265
 30
0.0
 11
237.8556624327026
 21
227.2796978699265
 31
0.0
  0
LINE
  5
252
330
70
100
AcDbEntity
  8
Visible (ISO)
100
AcDbLine
 10
209.0
 20
227.0296978699265
 30
0.0
 11
209.1443375672974
 21
227.2796978699265
 31
0.0
  0
LINE
  5
253
330
70
100
AcDbEntity
  8
Visible (ISO)
100
AcDbLine
 10
209.0
 20
186.5296978699264
 30
0.0
 11
209.1443375672974
 21
186.2796978699265
 31
0.0
  0
LINE
  5
254
330
70
100
AcDbEntity
  8
Visible (ISO)
100
AcDbLine
 10
236.7009618943233
 20
208.9985086678286
 30
0.0
 11
210.2990381056766
 21
208.9985086678286
 31
0.0
  0
LINE
  5
255
330
70
100
AcDbEntity
  8
Visible (ISO)
100
AcDbLine
 10
210.2990381056766
 20
204.5608870720376
 30
0.0
 11
236.7009618943233
 21
204.5608870720376
 31
0.0
  0
LINE
  5
256
330
70
100
AcDbEntity
  8
Visible (ISO)
100
AcDbLine
 10
236.7009618943233
 20
188.4985086678259
 30
0.0
 11
210.2990381056766
 21
188.4985086678259
 31
0.0
  0
LINE
  5
257
330
70
100
AcDbEntity
  8
Visible (ISO)
100
AcDbLine
 10
210.2990381056766
 20
225.0608870720349
 30
0.0
 11
236.7009618943233
 21
225.0608870720349
 31
0.0
  0
LINE
  5
258
330
70
100
AcDbEntity
  8
Visible (ISO)
100
AcDbLine
 10
236.7009618943233
 20
227.2796978699293
 30
0.0
 11
210.2990381056766
 21
227.2796978699293
 31
0.0
  0
LINE
  5
259
330
70
100
AcDbEntity
  8
Visible (ISO)
100
AcDbLine
 10
210.2990381056767
 20
186.2796978699292
 30
0.0
 11
236.7009618943233
 21
186.2796978699292
 31
0.0
  0
LINE
  5
25A
330
70
100
AcDbEntity
  8
Visible Narrow (ISO)
100
AcDbLine
 10
204.8334119691644
 20
220.1891162018348
 30
0.0
 11
205.1667059845822
 21
219.9452634223837
 31
0.0
  0
SPLINE
  5
25B
330
70
100
AcDbEntity
  8
Visible Narrow (ISO)
100
AcDbSpline
210
0.0
220
0.0
230
1.0
 70
     8
 71
     3
 72
    10
 73
     6
 74
     0
 42
0.000000001
 43
0.0000000001
 40
0.0
 40
0.0
 40
0.0
 40
0.0
 40
0.04104736152161
 40
0.04104736152161
 40
0.0998107680635957
 40
0.0998107680635957
 40
0.0998107680635957
 40
0.0998107680635957
 10
205.1667059845822
 20
219.9452634223837
 30
0.0
 10
205.207101859349
 20
220.0309054618834
 30
0.0
 10
205.2515356178076
 20
220.1167576496121
 30
0.0
 10
205.3627611705071
 20
220.3166103549254
 30
0.0
 10
205.4316071494397
 20
220.4281395750999
 30
0.0
 10
205.5
 20
220.5285951469463
 30
0.0
  0
SPLINE
  5
25C
330
70
100
AcDbEntity
  8
Visible Narrow (ISO)
100
AcDbSpline
210
0.0
220
0.0
230
1.0
 70
     8
 71
     3
 72
    10
 73
     6
 74
     0
 42
0.000000001
 43
0.0000000001
 40
-0.0998107680635957
 40
-0.0998107680635957
 40
-0.0998107680635957
 40
-0.0998107680635957
 40
-0.04104736152161
 40
-0.04104736152161
 40
0.0
 40
0.0
 40
0.0
 40
0.0
 10
205.5
 20
220.5285951469463
 30
0.0
 10
205.3632142988657
 20
220.4771271687677
 30
0.0
 10
205.2255223410142
 20
220.4153836013912
 30
0.0
 10
205.0030712356151
 20
220.2971869684153
 30
0.0
 10
204.9142037186979
 20
220.2443286268793
 30
0.0
 10
204.8334119691644
 20
220.1891162018348
 30
0.0
  0
LINE
  5
25D
330
70
100
AcDbEntity
  8
Visible Narrow (ISO)
100
AcDbLine
 10
204.5
 20
219.0194895348248
 30
0.0
 11
205.0
 21
219.0194895348249
 31
0.0
  0
SPLINE
  5
25E
330
70
100
AcDbEntity
  8
Visible Narrow (ISO)
100
AcDbSpline
210
0.0
220
0.0
230
1.0
 70
     8
 71
     3
 72
    12
 73
     8
 74
     0
 42
0.000000001
 43
0.0000000001
 40
-0.1235835750078259
 40
-0.1235835750078259
 40
-0.1235835750078259
 40
-0.1235835750078259
 40
-0.0705769001677078
 40
-0.0705769001677078
 40
-0.0271449616029647
 40
-0.0271449616029647
 40
-0.0000000000000002
 40
-0.0000000000000002
 40
-0.0000000000000002
 40
-0.0000000000000002
 10
205.0
 20
219.0194895348249
 30
0.0
 10
205.0
 20
219.1622477241543
 30
0.0
 10
205.0088680759614
 20
219.3037429634635
 30
0.0
 10
205.0437653281651
 20
219.5525947483215
 30
0.0
 10
205.0664236996153
 20
219.6615612458979
 30
0.0
 10
205.1171246668494
 20
219.8274930434521
 30
0.0
 10
205.1399918565892
 20
219.8886276292987
 30
0.0
 10
205.1667059845822
 20
219.9452634223837
 30
0.0
  0
SPLINE
  5
25F
330
70
100
AcDbEntity
  8
Visible Narrow (ISO)
100
AcDbSpline
210
0.0
220
0.0
230
1.0
 70
     8
 71
     3
 72
    12
 73
     8
 74
     0
 42
0.000000001
 43
0.0000000001
 40
0.0000000000000002
 40
0.0000000000000002
 40
0.0000000000000002
 40
0.0000000000000002
 40
0.0271449616029647
 40
0.0271449616029647
 40
0.0705769001677078
 40
0.0705769001677078
 40
0.1235835750078259
 40
0.1235835750078259
 40
0.1235835750078259
 40
0.1235835750078259
 10
204.8334119691644
 20
220.1891162018348
 30
0.0
 10
204.7799837131785
 20
220.1160913299659
 30
0.0
 10
204.7342493336988
 20
220.0375430117979
 30
0.0
 10
204.6328473992307
 20
219.8252953829473
 30
0.0
 10
204.5875306563304
 20
219.6868150965552
 30
0.0
 10
204.5177361519228
 20
219.3730117551928
 30
0.0
 10
204.5
 20
219.1961784509586
 30
0.0
 10
204.5
 20
219.0194895348248
 30
0.0
  0
LINE
  5
260
330
70
100
AcDbEntity
  8
Visible Narrow (ISO)
100
AcDbLine
 10
204.5
 20
194.5399062050373
 30
0.0
 11
205.0
 21
194.5399062050374
 31
0.0
  0
LINE
  5
261
330
70
100
AcDbEntity
  8
Visible Narrow (ISO)
100
AcDbLine
 10
204.5
 20
219.0194895348248
 30
0.0
 11
204.5
 21
194.5399062050373
 31
0.0
  0
SPLINE
  5
262
330
70
100
AcDbEntity
  8
Visible (ISO)
100
AcDbSpline
210
0.0
220
0.0
230
1.0
 70
     8
 71
     3
 72
    16
 73
    12
 74
     0
 42
0.000000001
 43
0.0000000001
 40
0.0
 40
0.0
 40
0.0
 40
0.0
 40
0.0081563631666438
 40
0.0081563631666438
 40
0.0269538414042109
 40
0.0269538414042109
 40
0.0403582634218257
 40
0.0403582634218257
 40
0.0535176703113203
 40
0.0535176703113203
 40
0.0537558782039117
 40
0.0537558782039117
 40
0.0537558782039117
 40
0.0537558782039117
 10
205.0124695303947
 20
193.1759300095182
 30
0.0
 10
205.0396574076168
 20
193.1759300095182
 30
0.0
 10
205.0668389498238
 20
193.1769506179512
 30
0.0
 10
205.1561982947488
 20
193.1838264857231
 30
0.0
 10
205.2176196535071
 20
193.1942384636283
 30
0.0
 10
205.317942816903
 20
193.2223743339653
 30
0.0
 10
205.3580467641073
 20
193.2370909362261
 30
0.0
 10
205.4327916334864
 20
193.2723605141878
 30
0.0
 10
205.4668974696236
 20
193.2924903109618
 30
0.0
 10
205.4988663553161
 20
193.3159020329833
 30
0.0
 10
205.499433705014
 20
193.3163191077336
 30
0.0
 10
205.5000000000196
 20
193.3167369956294
 30
0.0
  0
SPLINE
  5
263
330
70
100
AcDbEntity
  8
Visible Narrow (ISO)
100
AcDbSpline
210
0.0
220
0.0
230
1.0
 70
     8
 71
     3
 72
    12
 73
     8
 74
     0
 42
0.000000001
 43
0.0000000001
 40
-1.038812541683239
 40
-1.038812541683239
 40
-1.038812541683239
 40
-1.038812541683239
 40
-0.9751788403099672
 40
-0.9751788403099672
 40
-0.9218072531194016
 40
-0.9218072531194016
 40
-0.8352412791811861
 40
-0.8352412791811861
 40
-0.8352412791811861
 40
-0.8352412791811861
 10
205.5
 20
193.3167369956294
 30
0.0
 10
205.3941383563412
 20
193.3167369956294
 30
0.0
 10
205.293050727288
 20
193.3997239031501
 30
0.0
 10
205.1573294962548
 20
193.6160091012628
 30
0.0
 10
205.1113065200401
 20
193.7372880507399
 30
0.0
 10
205.0230595382158
 20
194.0758996472651
 30
0.0
 10
205.0
 20
194.3067657234995
 30
0.0
 10
205.0
 20
194.5399062050375
 30
0.0
  0
SPLINE
  5
264
330
70
100
AcDbEntity
  8
Visible Narrow (ISO)
100
AcDbSpline
210
0.0
220
0.0
230
1.0
 70
     8
 71
     3
 72
    12
 73
     8
 74
     0
 42
0.000000001
 43
0.0000000001
 40
0.8352412791811861
 40
0.8352412791811861
 40
0.8352412791811861
 40
0.8352412791811861
 40
0.9218072531194016
 40
0.9218072531194016
 40
0.9751788403099672
 40
0.9751788403099672
 40
0.9853200656968359
 40
0.9853200656968359
 40
0.9853200656968359
 40
0.9853200656968359
 10
204.5
 20
194.5399062050373
 30
0.0
 10
204.5
 20
194.2513529585766
 30
0.0
 10
204.5461190764316
 20
193.9608938348923
 30
0.0
 10
204.7226130400805
 20
193.5291144379485
 30
0.0
 10
204.8146589925097
 20
193.3729750021932
 30
0.0
 10
204.9620033940354
 20
193.2209536651671
 30
0.0
 10
204.9865145353182
 20
193.1979010495641
 30
0.0
 10
205.0124695303947
 20
193.1759300095182
 30
0.0
  0
LINE
  5
265
330
70
100
AcDbEntity
  8
Visible Narrow (ISO)
100
AcDbLine
 10
193.5
 20
220.1891162018348
 30
0.0
 11
204.8334119691644
 21
220.1891162018348
 31
0.0
  0
LINE
  5
266
330
70
100
AcDbEntity
  8
Visible Narrow (ISO)
100
AcDbLine
 10
193.5
 20
193.1759300095182
 30
0.0
 11
193.5
 21
220.1891162018348
 31
0.0
  0
LINE
  5
267
330
70
100
AcDbEntity
  8
Visible Narrow (ISO)
100
AcDbLine
 10
205.5
 20
220.5285951469463
 30
0.0
 11
193.5
 21
220.5285951469463
 31
0.0
  0
LINE
  5
268
330
70
100
AcDbEntity
  8
Visible Narrow (ISO)
100
AcDbLine
 10
193.5
 20
220.5285951469463
 30
0.0
 11
193.5
 21
220.1891162018348
 31
0.0
  0
ARC
  5
269
330
70
100
AcDbEntity
  8
Visible (ISO)
100
AcDbCircle
 10
204.5
 20
191.2796978699301
 30
0.0
 40
0.4999999999999984
100
AcDbArc
 50
0.0
 51
90.0
  0
SPLINE
  5
26A
330
70
100
AcDbEntity
  8
Visible Narrow (ISO)
100
AcDbSpline
210
0.0
220
0.0
230
1.0
 70
     8
 71
     3
 72
    14
 73
    10
 74
     0
 42
0.000000001
 43
0.0000000001
 40
-0.2589456480159592
 40
-0.2589456480159592
 40
-0.2589456480159592
 40
-0.2589456480159592
 40
-0.1808355103438729
 40
-0.1808355103438729
 40
-0.1190080871223419
 40
-0.1190080871223419
 40
-0.0613176770030832
 40
-0.0613176770030832
 40
-0.055374385514062
 40
-0.055374385514062
 40
-0.055374385514062
 40
-0.055374385514062
 10
205.0
 20
191.2796978699302
 30
0.0
 10
205.0
 20
191.3430159411212
 30
0.0
 10
205.0189112375214
 20
191.4062597776893
 30
0.0
 10
205.0971243558133
 20
191.5118838944386
 30
0.0
 10
205.1475210801859
 20
191.5561557474607
 30
0.0
 10
205.2861567575503
 20
191.6241716771705
 30
0.0
 10
205.3745523690232
 20
191.6485156945021
 30
0.0
 10
205.4801892284581
 20
191.6529822177326
 30
0.0
 10
205.4901517290678
 20
191.6531918458341
 30
0.0
 10
205.5
 20
191.6531918458341
 30
0.0
  0
SPLINE
  5
26B
330
70
100
AcDbEntity
  8
Visible (ISO)
100
AcDbSpline
210
0.0
220
0.0
230
1.0
 70
     8
 71
     3
 72
    14
 73
    10
 74
     0
 42
0.000000001
 43
0.0000000001
 40
-0.0002388074862323
 40
-0.0002388074862323
 40
-0.0002388074862323
 40
-0.0002388074862323
 40
0.0
 40
0.0
 40
0.0163186647857146
 40
0.0163186647857146
 40
0.0335872054116036
 40
0.0335872054116036
 40
0.0537498430958628
 40
0.0537498430958628
 40
0.0537498430958628
 40
0.0537498430958628
 10
205.4999999999966
 20
191.6531918458341
 30
0.0
 10
205.4994337035917
 20
191.6535637772162
 30
0.0
 10
205.4988663567195
 20
191.6539350131599
 30
0.0
 10
205.4594566383303
 20
191.679626159807
 30
0.0
 10
205.4163628914712
 20
191.7012150600091
 30
0.0
 10
205.319490582946
 20
191.737993607822
 30
0.0
 10
205.2661279857424
 20
191.7523984135373
 30
0.0
 10
205.1462532036311
 20
191.7740806206685
 30
0.0
 10
205.079417506933
 20
191.7796978699305
 30
0.0
 10
205.0124695303947
 20
191.7796978699305
 30
0.0
  0
LINE
  5
26C
330
70
100
AcDbEntity
  8
Visible Narrow (ISO)
100
AcDbLine
 10
239.7
 20
186.5296978699264
 30
0.0
 11
239.7
 21
227.0296978699265
 31
0.0
  0
LINE
  5
26D
330
70
100
AcDbEntity
  8
Visible (ISO)
100
AcDbLine
 10
240.0
 20
226.7296978699265
 30
0.0
 11
240.0
 21
186.8296978699265
 31
0.0
  0
SPLINE
  5
26E
330
70
100
AcDbEntity
  8
Visible Narrow (ISO)
100
AcDbSpline
210
0.0
220
0.0
230
1.0
 70
     8
 71
     3
 72
     8
 73
     4
 74
     0
 42
0.000000001
 43
0.0000000001
 40
-0.1483370453176767
 40
-0.1483370453176767
 40
-0.1483370453176767
 40
-0.1483370453176767
 40
-0.1473388426070215
 40
-0.1473388426070215
 40
-0.1473388426070215
 40
-0.1473388426070215
 10
204.9923976222336
 20
221.7796978699306
 30
0.0
 10
204.9949580284368
 20
221.7811830484089
 30
0.0
 10
204.9974663975838
 20
221.7826530275051
 30
0.0
 10
204.999999955947
 20
221.7841528095927
 30
0.0
  0
SPLINE
  5
26F
330
70
100
AcDbEntity
  8
Visible Narrow (ISO)
100
AcDbSpline
210
0.0
220
0.0
230
1.0
 70
     8
 71
     3
 72
    12
 73
     8
 74
     0
 42
0.000000001
 43
0.0000000001
 40
-0.1473388426070215
 40
-0.1473388426070215
 40
-0.1473388426070215
 40
-0.1473388426070215
 40
-0.1360509133673767
 40
-0.1360509133673767
 40
-0.0774400999889063
 40
-0.0774400999889063
 40
-0.0000000000000003
 40
-0.0000000000000003
 40
-0.0000000000000003
 40
-0.0000000000000003
 10
204.999999955947
 20
221.7841528095927
 30
0.0
 10
205.0286989350065
 20
221.8011416484339
 30
0.0
 10
205.0556502143173
 20
221.8190228756206
 30
0.0
 10
205.2148480892329
 20
221.9356510609423
 30
0.0
 10
205.309920457578
 20
222.0546634712481
 30
0.0
 10
205.4627770522766
 20
222.3389993228153
 30
0.0
 10
205.5
 20
222.5080781382203
 30
0.0
 10
205.5
 20
222.6721029332214
 30
0.0
  0
ELLIPSE
  5
270
330
70
100
AcDbEntity
  8
Visible Narrow (ISO)
100
AcDbEllipse
 10
205.5
 20
222.2796978699301
 30
0.0
 11
-0.4999999999999977
 21
-0.0000000000000001
 31
0.0
210
0.0
220
0.0
230
1.0
 40
0.7848101265824653
 41
4.712388980384688
 42
6.28318530717958
  0
SPLINE
  5
271
330
70
100
AcDbEntity
  8
Visible (ISO)
100
AcDbSpline
210
0.0
220
0.0
230
1.0
 70
     8
 71
     3
 72
    12
 73
     8
 74
     0
 42
0.000000001
 43
0.0000000001
 40
0.0000000000000003
 40
0.0000000000000003
 40
0.0000000000000003
 40
0.0000000000000003
 40
0.0774400999889063
 40
0.0774400999889063
 40
0.1360509133673767
 40
0.1360509133673767
 40
0.2022974193000965
 40
0.2022974193000965
 40
0.2022974193000965
 40
0.2022974193000965
 10
205.0
 20
222.2796978699301
 30
0.0
 10
205.0
 20
222.1997104698988
 30
0.0
 10
204.9813885261383
 20
222.1172584549791
 30
0.0
 10
204.904960228789
 20
221.9786008483507
 30
0.0
 10
204.8574240446164
 20
221.920563932214
 30
0.0
 10
204.7152396564751
 20
221.8189717619742
 30
0.0
 10
204.6104108432212
 20
221.7796978699305
 30
0.0
 10
204.5
 20
221.7796978699305
 30
0.0
  0
LINE
  5
272
330
70
100
AcDbEntity
  8
Visible Narrow (ISO)
100
AcDbLine
 10
204.5
 20
221.7796978699305
 30
0.0
 11
204.5
 21
221.6467864775255
 31
0.0
  0
SPLINE
  5
273
330
70
100
AcDbEntity
  8
Visible Narrow (ISO)
100
AcDbSpline
210
0.0
220
0.0
230
1.0
 70
     8
 71
     3
 72
     8
 73
     4
 74
     0
 42
0.000000001
 43
0.0000000001
 40
-0.2022974193000965
 40
-0.2022974193000965
 40
-0.2022974193000965
 40
-0.2022974193000965
 40
-0.1483370453176767
 40
-0.1483370453176767
 40
-0.1483370453176767
 40
-0.1483370453176767
 10
204.5
 20
221.6467864775255
 30
0.0
 10
204.6798679132747
 20
221.6467864775255
 30
0.0
 10
204.8539883845155
 20
221.6994127882874
 30
0.0
 10
204.9923976222336
 20
221.7796978699306
 30
0.0
  0
LINE
  5
274
330
70
100
AcDbEntity
  8
Visible (ISO)
100
AcDbLine
 10
205.0
 20
222.2796978699301
 30
0.0
 11
205.0
 21
226.5296978699265
 31
0.0
  0
LINE
  5
275
330
70
100
AcDbEntity
  8
Visible Narrow (ISO)
100
AcDbLine
 10
205.5
 20
227.0296978699265
 30
0.0
 11
205.5
 21
222.6721029332214
 31
0.0
  0
LINE
  5
276
330
70
100
AcDbEntity
  8
Visible Narrow (ISO)
100
AcDbLine
 10
193.5
 20
221.7796978699305
 30
0.0
 11
193.5
 21
221.6467864775255
 31
0.0
  0
ARC
  5
277
330
70
100
AcDbEntity
  8
Visible (ISO)
100
AcDbCircle
 10
193.5
 20
221.2796978699305
 30
0.0
 40
0.5000000000000006
100
AcDbArc
 50
90.0
 51
180.0
  0
ELLIPSE
  5
278
330
70
100
AcDbEntity
  8
Visible Narrow (ISO)
100
AcDbEllipse
 10
193.5
 20
221.2796978699305
 30
0.0
 11
-0.5000000000000049
 21
0.000000000000011
 31
0.0
210
0.0
220
0.0
230
1.0
 40
0.7341772151900793
 41
4.712388980384704
 42
6.283185307179594
  0
LINE
  5
279
330
70
100
AcDbEntity
  8
Visible Narrow (ISO)
100
AcDbLine
 10
205.5
 20
220.5285951469463
 30
0.0
 11
205.5
 21
193.3167369956294
 31
0.0
  0
LINE
  5
27A
330
70
100
AcDbEntity
  8
Visible (ISO)
100
AcDbLine
 10
205.0
 20
194.5399062050374
 30
0.0
 11
205.0
 21
219.0194895348249
 31
0.0
  0
ELLIPSE
  5
27B
330
70
100
AcDbEntity
  8
Visible Narrow (ISO)
100
AcDbEllipse
 10
193.5
 20
220.1891162018347
 30
0.0
 11
-0.5000000000000046
 21
-0.0000000000000008
 31
0.0
210
0.0
220
0.0
230
1.0
 40
0.6789578902232028
 41
4.712388980384688
 42
6.283185307179576
  0
LINE
  5
27C
330
70
100
AcDbEntity
  8
Visible Narrow (ISO)
100
AcDbLine
 10
193.5
 20
220.1891162018348
 30
0.0
 11
192.9999999999999
 21
220.1891162018347
 31
0.0
  0
LINE
  5
27D
330
70
100
AcDbEntity
  8
Visible (ISO)
100
AcDbLine
 10
192.9999999999999
 20
220.1891162018347
 30
0.0
 11
192.9999999999999
 21
221.2796978699305
 31
0.0
  0
LINE
  5
27E
330
70
100
AcDbEntity
  8
Visible Narrow (ISO)
100
AcDbLine
 10
193.5
 20
221.6467864775254
 30
0.0
 11
193.5
 21
220.5285951469463
 31
0.0
  0
LINE
  5
27F
330
70
100
AcDbEntity
  8
Visible (ISO)
100
AcDbLine
 10
192.9999999999999
 20
220.1891162018347
 30
0.0
 11
192.9999999999999
 21
193.3702795380269
 31
0.0
  0
SPLINE
  5
280
330
70
100
AcDbEntity
  8
Visible (ISO)
100
AcDbSpline
210
0.0
220
0.0
230
1.0
 70
     8
 71
     3
 72
    18
 73
    14
 74
     0
 42
0.000000001
 43
0.0000000001
 40
-0.0815340497616671
 40
-0.0815340497616671
 40
-0.0815340497616671
 40
-0.0815340497616671
 40
-0.0811951637395625
 40
-0.0811951637395625
 40
-0.0693178817814584
 40
-0.0693178817814584
 40
-0.0575189319196278
 40
-0.0575189319196278
 40
-0.0372296817622698
 40
-0.0372296817622698
 40
-0.0182974817035041
 40
-0.0182974817035041
 40
0.0
 40
0.0
 40
0.0
 40
0.0
 10
192.9999999999999
 20
193.3702795380269
 30
0.0
 10
192.9999999999999
 20
193.3698667126856
 30
0.0
 10
193.000003335456
 20
193.3694539043593
 30
0.0
 10
193.0002438121698
 20
193.354573820625
 30
0.0
 10
193.004574531399
 20
193.3401574740007
 30
0.0
 10
193.0213068882544
 20
193.3120497811764
 30
0.0
 10
193.0336280689996
 20
193.2984001263733
 30
0.0
 10
193.077651538328
 20
193.2629599590342
 30
0.0
 10
193.1166312606033
 20
193.2426141409234
 30
0.0
 10
193.2107696191714
 20
193.2097636531735
 30
0.0
 10
193.263858395625
 20
193.1971159002829
 30
0.0
 10
193.3788190049201
 20
193.1802333550121
 30
0.0
 10
193.4390083943216
 20
193.1759300095182
 30
0.0
 10
193.5
 20
193.1759300095182
 30
0.0
  0
LINE
  5
281
330
70
100
AcDbEntity
  8
Visible (ISO)
100
AcDbLine
 10
192.9999999999999
 20
192.2796978699304
 30
0.0
 11
192.9999999999999
 21
193.3702795380269
 31
0.0
  0
SPLINE
  5
282
330
70
100
AcDbEntity
  8
Visible (ISO)
100
AcDbSpline
210
0.0
220
0.0
230
1.0
 70
     8
 71
     3
 72
    18
 73
    14
 74
     0
 42
0.000000001
 43
0.0000000001
 40
-0.000339708567106
 40
-0.000339708567106
 40
-0.000339708567106
 40
-0.000339708567106
 40
0.0
 40
0.0
 40
0.0119061105255289
 40
0.0119061105255289
 40
0.0237336988272448
 40
0.0237336988272448
 40
0.0440721951020693
 40
0.0440721951020693
 40
0.0630503474429927
 40
0.0630503474429927
 40
0.0813922408387128
 40
0.0813922408387128
 40
0.0813922408387128
 40
0.0813922408387128
 10
192.9999999999999
 20
192.2796978699305
 30
0.0
 10
192.9999999999999
 20
192.2786434417972
 30
0.0
 10
193.000003335456
 20
192.2775890084287
 30
0.0
 10
193.0002438121698
 20
192.2395791616974
 30
0.0
 10
193.0045745313993
 20
192.2026933715413
 30
0.0
 10
193.0213068882544
 20
192.1306646474428
 30
0.0
 10
193.0336280689996
 20
192.0956293907913
 30
0.0
 10
193.077651538328
 20
192.0045358125369
 30
0.0
 10
193.1166312606033
 20
191.9520933840306
 30
0.0
 10
193.2107696191714
 20
191.8672823268821
 30
0.0
 10
193.263858395625
 20
191.8345588930931
 30
0.0
 10
193.37881900492
 20
191.7908534655164
 30
0.0
 10
193.4390083943216
 20
191.7796978699305
 30
0.0
 10
193.5
 20
191.7796978699305
 30
0.0
  0
LINE
  5
283
330
70
100
AcDbEntity
  8
Visible Narrow (ISO)
100
AcDbLine
 10
193.5
 20
193.1759300095182
 30
0.0
 11
193.5
 21
191.7796978699305
 31
0.0
  0
LINE
  5
284
330
70
100
AcDbEntity
  8
Visible Narrow (ISO)
100
AcDbLine
 10
205.5
 20
191.6531918458341
 30
0.0
 11
205.5
 21
186.5296978699264
 31
0.0
  0
LINE
  5
285
330
70
100
AcDbEntity
  8
Visible (ISO)
100
AcDbLine
 10
205.0
 20
187.0296978699265
 30
0.0
 11
205.0
 21
191.2796978699303
 31
0.0
  0
LINE
  5
286
330
70
100
AcDbEntity
  8
Visible (ISO)
100
AcDbLine
 10
204.5
 20
221.7796978699305
 30
0.0
 11
193.5
 21
221.7796978699305
 31
0.0
  0
LINE
  5
287
330
70
100
AcDbEntity
  8
Visible Narrow (ISO)
100
AcDbLine
 10
193.5
 20
221.6467864775255
 30
0.0
 11
204.5
 21
221.6467864775255
 31
0.0
  0
LINE
  5
288
330
70
100
AcDbEntity
  8
Visible Narrow (ISO)
100
AcDbLine
 10
192.5
 20
195.7796978699265
 30
0.0
 11
192.5
 21
217.7796978699265
 31
0.0
  0
LINE
  5
289
330
70
100
AcDbEntity
  8
Visible Narrow (ISO)
100
AcDbLine
 10
185.383925174702
 20
217.7796978699265
 30
0.0
 11
185.383925174702
 21
195.7796978699265
 31
0.0
  0
LINE
  5
28A
330
70
100
AcDbEntity
  8
Visible Narrow (ISO)
100
AcDbLine
 10
184.914078864309
 20
195.4507079415893
 30
0.0
 11
184.914078864309
 21
218.1086877982637
 31
0.0
  0
LINE
  5
28B
330
70
100
AcDbEntity
  8
Visible Narrow (ISO)
100
AcDbLine
 10
182.9697425412881
 20
223.4507079415894
 30
0.0
 11
182.9697425412881
 21
190.1086877982637
 31
0.0
  0
LINE
  5
28C
330
70
100
AcDbEntity
  8
Visible Narrow (ISO)
100
AcDbLine
 10
182.4998962308951
 20
189.7796978699265
 30
0.0
 11
182.4998962308951
 21
223.7796978699265
 31
0.0
  0
LINE
  5
28D
330
70
100
AcDbEntity
  8
Visible Narrow (ISO)
100
AcDbLine
 10
180.4999999999999
 20
223.7796978699265
 30
0.0
 11
180.4999999999999
 21
189.7796978699265
 31
0.0
  0
LINE
  5
28E
330
70
100
AcDbEntity
  8
Visible (ISO)
100
AcDbLine
 10
180.0
 20
190.2796978699265
 30
0.0
 11
180.0
 21
223.2796978699265
 31
0.0
  0
ARC
  5
28F
330
70
100
AcDbEntity
  8
Visible (ISO)
100
AcDbCircle
 10
239.7
 20
186.8296978699265
 30
0.0
 40
0.3
100
AcDbArc
 50
270.0
 51
0.0
  0
ARC
  5
290
330
70
100
AcDbEntity
  8
Visible (ISO)
100
AcDbCircle
 10
239.7
 20
226.7296978699265
 30
0.0
 40
0.3
100
AcDbArc
 50
0.0
 51
90.0
  0
ARC
  5
291
330
70
100
AcDbEntity
  8
Visible (ISO)
100
AcDbCircle
 10
205.5
 20
226.5296978699265
 30
0.0
 40
0.5
100
AcDbArc
 50
90.0
 51
180.0
  0
ARC
  5
292
330
70
100
AcDbEntity
  8
Visible (ISO)
100
AcDbCircle
 10
205.5
 20
187.0296978699265
 30
0.0
 40
0.5
100
AcDbArc
 50
180.0
 51
270.0
  0
ARC
  5
293
330
70
100
AcDbEntity
  8
Visible (ISO)
100
AcDbCircle
 10
192.5
 20
195.2796978699265
 30
0.0
 40
0.5
100
AcDbArc
 50
0.0
 51
90.0
  0
ARC
  5
294
330
70
100
AcDbEntity
  8
Visible (ISO)
100
AcDbCircle
 10
192.5
 20
218.2796978699265
 30
0.0
 40
0.5
100
AcDbArc
 50
270.0
 51
0.0
  0
ARC
  5
295
330
70
100
AcDbEntity
  8
Visible (ISO)
100
AcDbCircle
 10
185.3839251747021
 20
195.2796978699265
 30
0.0
 40
0.5000000000000002
100
AcDbArc
 50
90.00000000000406
 51
160.0000000000008
  0
ARC
  5
296
330
70
100
AcDbEntity
  8
Visible (ISO)
100
AcDbCircle
 10
185.383925174702
 20
218.2796978699265
 30
0.0
 40
0.5
100
AcDbArc
 50
199.9999999999991
 51
270.0
  0
ARC
  5
297
330
70
100
AcDbEntity
  8
Visible (ISO)
100
AcDbCircle
 10
182.4998962308951
 20
190.2796978699265
 30
0.0
 40
0.5000000000000002
100
AcDbArc
 50
270.0000000000041
 51
340.0000000000009
  0
ARC
  5
298
330
70
100
AcDbEntity
  8
Visible (ISO)
100
AcDbCircle
 10
182.4998962308951
 20
223.2796978699265
 30
0.0
 40
0.5
100
AcDbArc
 50
19.99999999999912
 51
90.0
  0
ARC
  5
299
330
70
100
AcDbEntity
  8
Visible (ISO)
100
AcDbCircle
 10
180.4999999999999
 20
190.2796978699265
 30
0.0
 40
0.5
100
AcDbArc
 50
180.0
 51
270.0
  0
ARC
  5
29A
330
70
100
AcDbEntity
  8
Visible (ISO)
100
AcDbCircle
 10
180.4999999999999
 20
223.2796978699265
 30
0.0
 40
0.5
100
AcDbArc
 50
90.0
 51
180.0
  0
LINE
  5
29B
330
70
100
AcDbEntity
  8
Visible (ISO)
100
AcDbLine
 10
193.5
 20
193.1759300095182
 30
0.0
 11
205.0124695303947
 21
193.1759300095182
 31
0.0
  0
LINE
  5
29C
330
70
100
AcDbEntity
  8
Visible (ISO)
100
AcDbLine
 10
205.0124694832197
 20
191.7796978699305
 30
0.0
 11
193.5
 21
191.7796978699305
 31
0.0
  0
LINE
  5
29D
330
70
100
AcDbEntity
  8
Visible Narrow (ISO)
100
AcDbLine
 10
206.5
 20
227.0296978699265
 30
0.0
 11
206.5
 21
186.5296978699264
 31
0.0
  0
LINE
  5
29E
330
70
100
AcDbEntity
  8
Visible Narrow (ISO)
100
AcDbLine
 10
207.4999999999999
 20
227.0296978699265
 30
0.0
 11
207.4999999999999
 21
186.5296978699264
 31
0.0
  0
LINE
  5
29F
330
70
100
AcDbEntity
  8
Visible (ISO)
100
AcDbLine
 10
206.9999999999999
 20
226.5296978699265
 30
0.0
 11
206.9999999999999
 21
187.0296978699265
 31
0.0
  0
ARC
  5
2A0
330
70
100
AcDbEntity
  8
Visible (ISO)
100
AcDbCircle
 10
207.4999999999999
 20
226.5296978699265
 30
0.0
 40
0.4999999999999993
100
AcDbArc
 50
90.0
 51
180.0
  0
ARC
  5
2A1
330
70
100
AcDbEntity
  8
Visible (ISO)
100
AcDbCircle
 10
207.5
 20
187.0296978699265
 30
0.0
 40
0.4999999999999993
100
AcDbArc
 50
180.0
 51
270.0
  0
ARC
  5
2A2
330
70
100
AcDbEntity
  8
Visible (ISO)
100
AcDbCircle
 10
206.5
 20
226.5296978699265
 30
0.0
 40
0.4999999999999961
100
AcDbArc
 50
0.0
 51
90.0
  0
ARC
  5
2A3
330
70
100
AcDbEntity
  8
Visible (ISO)
100
AcDbCircle
 10
206.5
 20
187.0296978699265
 30
0.0
 40
0.4999999999999961
100
AcDbArc
 50
270.0000000000041
 51
0.0
  0
LINE
  5
2A4
330
70
100
AcDbEntity
  8
Visible (ISO)
100
AcDbLine
 10
238.0
 20
227.0296978699265
 30
0.0
 11
239.7
 21
227.0296978699265
 31
0.0
  0
LINE
  5
2A5
330
70
100
AcDbEntity
  8
Visible (ISO)
100
AcDbLine
 10
238.0
 20
186.5296978699264
 30
0.0
 11
239.7
 21
186.5296978699264
 31
0.0
  0
LINE
  5
2A6
330
70
100
AcDbEntity
  8
Visible (ISO)
100
AcDbLine
 10
206.5
 20
186.5296978699264
 30
0.0
 11
205.5
 21
186.5296978699264
 31
0.0
  0
LINE
  5
2A7
330
70
100
AcDbEntity
  8
Visible (ISO)
100
AcDbLine
 10
206.5
 20
227.0296978699265
 30
0.0
 11
205.5
 21
227.0296978699265
 31
0.0
  0
LINE
  5
2A8
330
70
100
AcDbEntity
  8
Visible (ISO)
100
AcDbLine
 10
209.0
 20
186.5296978699264
 30
0.0
 11
207.5
 21
186.5296978699264
 31
0.0
  0
LINE
  5
2A9
330
70
100
AcDbEntity
  8
Visible (ISO)
100
AcDbLine
 10
209.0
 20
227.0296978699265
 30
0.0
 11
207.4999999999999
 21
227.0296978699265
 31
0.0
  0
LINE
  5
2AA
330
70
100
AcDbEntity
  8
Visible (ISO)
100
AcDbLine
 10
185.383925174702
 20
217.7796978699265
 30
0.0
 11
192.5
 21
217.7796978699265
 31
0.0
  0
LINE
  5
2AB
330
70
100
AcDbEntity
  8
Visible (ISO)
100
AcDbLine
 10
185.3839251747021
 20
195.7796978699265
 30
0.0
 11
192.5
 21
195.7796978699265
 31
0.0
  0
LINE
  5
2AC
330
70
100
AcDbEntity
  8
Visible (ISO)
100
AcDbLine
 10
184.914078864309
 20
195.4507079415893
 30
0.0
 11
182.9697425412881
 21
190.1086877982637
 31
0.0
  0
LINE
  5
2AD
330
70
100
AcDbEntity
  8
Visible (ISO)
100
AcDbLine
 10
184.914078864309
 20
218.1086877982637
 30
0.0
 11
182.9697425412881
 21
223.4507079415894
 31
0.0
  0
LINE
  5
2AE
330
70
100
AcDbEntity
  8
Visible (ISO)
100
AcDbLine
 10
180.4999999999999
 20
223.7796978699265
 30
0.0
 11
182.4998962308951
 21
223.7796978699265
 31
0.0
  0
LINE
  5
2AF
330
70
100
AcDbEntity
  8
Visible (ISO)
100
AcDbLine
 10
180.4999999999999
 20
189.7796978699265
 30
0.0
 11
182.4998962308951
 21
189.7796978699265
 31
0.0
  0
DIMENSION
  5
2B0
330
70
100
AcDbEntity
  8
Dimension (ISO)
100
AcDbDimension
280
     0
  2
*D6
 10
169.0487453165839
 20
131.5
 30
0.0
 11
169.0487453165839
 21
148.5
 31
0.0
 70
   160
  1
\fTahoma|b0|i0;\H4.5000;Ø<>
 71
     5
 42
34.0
 73
     0
 74
     0
 75
     0
  3
Default (JIS)
100
AcDbAlignedDimension
 13
180.5
 23
165.5
 33
0.0
 14
180.5
 24
131.5
 34
0.0
 50
270.0
100
AcDbRotatedDimension
1001
ACAD
1000
DSTYLE
1002
{
1070
   172
1070
     0
1070
   289
1070
     1
1070
   271
1070
     2
1070
   147
1040
0.8
1070
    72
1070
     0
1070
    71
1070
     0
1070
   272
1070
     2
1070
    48
1040
0.0
1070
    47
1040
0.0
1002
}
  0
DIMENSION
  5
39E
330
70
100
AcDbEntity
  8
Dimension (ISO)
100
AcDbDimension
280
     0
  2
*D7
 10
240.0
 20
112.55
 30
0.0
 11
210.0
 21
112.55
 31
0.0
 70
   160
  1
<>
 71
     5
 42
60.0
 73
     0
 74
     0
 75
     0
  3
Default (JIS)
100
AcDbAlignedDimension
 13
180.0
 23
132.0
 33
0.0
 14
240.0
 24
128.55
 34
0.0
 50
180.0
100
AcDbRotatedDimension
1001
ACAD
1000
DSTYLE
1002
{
1070
   172
1070
     0
1070
   289
1070
     1
1070
   271
1070
     2
1070
   147
1040
0.8
1070
    72
1070
     0
1070
    71
1070
     0
1070
   272
1070
     2
1070
    48
1040
0.0
1070
    47
1040
0.0
1002
}
  0
MTEXT
  5
48B
330
70
100
AcDbEntity
  8
Symbol (ISO)
100
AcDbMText
 10
120.0
 20
100.0
 30
0.0
 40
4.499999880790709
 41
37.26539611816406
 46
0.0
 71
     1
 72
     1
  1
{\fTahoma|b0|i0;E-ELF-19-15A}
  7
Note Text (JIS)
 73
     1
 44
1.0
  0
LINE
  5
48C
330
70
100
AcDbEntity
  8
Center Mark (ISO)
  6
CHAIN
 48
5.55593729019165
100
AcDbLine
 10
132.9501758434697
 20
148.5
 30
0.0
 11
127.9501758434697
 21
148.5
 31
0.0
  0
LINE
  5
48D
330
70
100
AcDbEntity
  8
Center Mark (ISO)
  6
CHAIN
 48
23.99096870422363
100
AcDbLine
 10
130.4501758434697
 20
173.2223235637363
 30
0.0
 11
130.4501758434697
 21
146.0
 31
0.0
  0
LINE
  5
48E
330
70
100
AcDbEntity
  8
Center Mark (ISO)
  6
CHAIN
 48
5.55593729019165
100
AcDbLine
 10
132.9501758434697
 20
148.5
 30
0.0
 11
127.9501758434697
 21
148.5
 31
0.0
  0
LINE
  5
48F
330
70
100
AcDbEntity
  8
Center Mark (ISO)
  6
CHAIN
 48
23.99096870422363
100
AcDbLine
 10
130.4501758434697
 20
151.0
 30
0.0
 11
130.4501758434697
 21
123.7993101657259
 31
0.0
  0
LINE
  5
490
330
70
100
AcDbEntity
  8
Center Mark (ISO)
  6
CHAIN
 48
23.99096870422363
100
AcDbLine
 10
153.2001758434697
 20
148.5
 30
0.0
 11
127.9501758434697
 21
148.5
 31
0.0
  0
LINE
  5
491
330
70
100
AcDbEntity
  8
Center Mark (ISO)
  6
CHAIN
 48
5.55593729019165
100
AcDbLine
 10
130.4501758434697
 20
151.0
 30
0.0
 11
130.4501758434697
 21
146.0
 31
0.0
  0
LINE
  5
492
330
70
100
AcDbEntity
  8
Center Mark (ISO)
  6
CHAIN
 48
23.99096870422363
100
AcDbLine
 10
132.9501758434697
 20
148.5
 30
0.0
 11
107.7001758434697
 21
148.5
 31
0.0
  0
LINE
  5
493
330
70
100
AcDbEntity
  8
Center Mark (ISO)
  6
CHAIN
 48
5.55593729019165
100
AcDbLine
 10
130.4501758434697
 20
151.0
 30
0.0
 11
130.4501758434697
 21
146.0
 31
0.0
  0
LINE
  5
494
330
70
100
AcDbEntity
  8
Centerline (ISO)
  6
CHAIN
 48
23.99096870422363
100
AcDbLine
 10
177.5
 20
148.5
 30
0.0
 11
242.5
 21
148.5
 31
0.0
  0
LINE
  5
495
330
70
100
AcDbEntity
  8
Centerline (ISO)
  6
CHAIN
 48
23.99096870422363
100
AcDbLine
 10
177.5
 20
206.7796978699265
 30
0.0
 11
242.2
 21
206.7796978699265
 31
0.0
  0
ENDSEC
  0
SECTION
  2
OBJECTS
  0
DICTIONARY
  5
C
330
0
100
AcDbDictionary
281
     1
  3
ACAD_CIP_PREVIOUS_PRODUCT_INFO
350
496
  3
ACAD_COLOR
350
63
  3
ACAD_DETAILVIEWSTYLE
350
6A
  3
ACAD_GROUP
350
D
  3
ACAD_LAYOUT
350
62
  3
ACAD_MATERIAL
350
10
  3
ACAD_MLEADERSTYLE
350
66
  3
ACAD_MLINESTYLE
350
5F
  3
ACAD_PLOTSETTINGS
350
61
  3
ACAD_PLOTSTYLENAME
350
E
  3
ACAD_SCALELIST
350
42
  3
ACAD_SECTIONVIEWSTYLE
350
68
  3
ACAD_TABLESTYLE
350
64
  3
ACAD_VISUALSTYLE
350
29
  3
ACDB_RECOMPOSE_DATA
350
528
  3
AcDbVariableDictionary
350
497
  0
DICTIONARY
  5
4A3
330
154
100
AcDbDictionary
280
     1
281
     1
  3
ACAD_MLATT
360
509
  3
ACAD_XREC_ROUNDTRIP
360
508
  0
DICTIONARY
  5
4A6
330
156
100
AcDbDictionary
280
     1
281
     1
  3
ACAD_MLATT
360
50B
  3
ACAD_XREC_ROUNDTRIP
360
50A
  0
DICTIONARY
  5
4A9
330
157
100
AcDbDictionary
280
     1
281
     1
  3
ACAD_MLATT
360
50D
  3
ACAD_XREC_ROUNDTRIP
360
50C
  0
DICTIONARY
  5
4AC
330
158
100
AcDbDictionary
280
     1
281
     1
  3
ACAD_MLATT
360
50F
  3
ACAD_XREC_ROUNDTRIP
360
50E
  0
DICTIONARY
  5
4AF
330
159
100
AcDbDictionary
280
     1
281
     1
  3
ACAD_MLATT
360
511
  3
ACAD_XREC_ROUNDTRIP
360
510
  0
DICTIONARY
  5
4B2
330
15A
100
AcDbDictionary
280
     1
281
     1
  3
ACAD_MLATT
360
513
  3
ACAD_XREC_ROUNDTRIP
360
512
  0
DICTIONARY
  5
4B5
330
15C
100
AcDbDictionary
280
     1
281
     1
  3
ACAD_MLATT
360
515
  3
ACAD_XREC_ROUNDTRIP
360
514
  0
DICTIONARY
  5
4B8
330
15D
100
AcDbDictionary
280
     1
281
     1
  3
ACAD_MLATT
360
517
  3
ACAD_XREC_ROUNDTRIP
360
516
  0
DICTIONARY
  5
4BB
330
15E
100
AcDbDictionary
280
     1
281
     1
  3
ACAD_MLATT
360
519
  3
ACAD_XREC_ROUNDTRIP
360
518
  0
DICTIONARY
  5
4BE
330
15F
100
AcDbDictionary
280
     1
281
     1
  3
ACAD_MLATT
360
51B
  3
ACAD_XREC_ROUNDTRIP
360
51A
  0
DICTIONARY
  5
4C1
330
160
100
AcDbDictionary
280
     1
281
     1
  3
ACAD_MLATT
360
51D
  3
ACAD_XREC_ROUNDTRIP
360
51C
  0
DICTIONARY
  5
4C4
330
161
100
AcDbDictionary
280
     1
281
     1
  3
ACAD_MLATT
360
51F
  3
ACAD_XREC_ROUNDTRIP
360
51E
  0
DICTIONARY
  5
4C7
330
162
100
AcDbDictionary
280
     1
281
     1
  3
ACAD_MLATT
360
521
  3
ACAD_XREC_ROUNDTRIP
360
520
  0
DICTIONARY
  5
4CA
330
163
100
AcDbDictionary
280
     1
281
     1
  3
ACAD_MLATT
360
523
  3
ACAD_XREC_ROUNDTRIP
360
522
  0
XRECORD
  5
496
102
{ACAD_REACTORS
330
C
102
}
330
C
100
AcDbXrecord
280
     1
300
AMECH_PP
300
2017
300
PDSP_F_S
  0
DICTIONARY
  5
63
102
{ACAD_REACTORS
330
C
102
}
330
C
100
AcDbDictionary
281
     1
  0
DICTIONARY
  5
6A
102
{ACAD_REACTORS
330
C
102
}
330
C
100
AcDbDictionary
281
     1
  3
Imperial24
350
6B
  3
Metric50
350
4FC
  0
DICTIONARY
  5
D
102
{ACAD_REACTORS
330
C
102
}
330
C
100
AcDbDictionary
281
     1
  0
DICTIONARY
  5
62
102
{ACAD_REACTORS
330
C
102
}
330
C
100
AcDbDictionary
281
     1
  3
Model
350
73
  3
レイアウト1
350
6F
  3
レイアウト2
350
77
  0
DICTIONARY
  5
10
102
{ACAD_REACTORS
330
C
102
}
330
C
100
AcDbDictionary
281
     1
  3
ByBlock
350
19
  3
ByLayer
350
11
  3
Global
350
21
  0
DICTIONARY
  5
66
102
{ACAD_REACTORS
330
C
102
}
330
C
100
AcDbDictionary
281
     1
  3
Standard
350
67
  0
DICTIONARY
  5
5F
102
{ACAD_REACTORS
330
C
102
}
330
C
100
AcDbDictionary
281
     1
  3
Standard
350
60
  0
DICTIONARY
  5
61
102
{ACAD_REACTORS
330
C
102
}
330
C
100
AcDbDictionary
281
     1
  0
ACDBDICTIONARYWDFLT
  5
E
102
{ACAD_REACTORS
330
C
102
}
330
C
100
AcDbDictionary
281
     1
  3
Normal
350
F
100
AcDbDictionaryWithDefault
340
F
  0
DICTIONARY
  5
42
102
{ACAD_REACTORS
330
C
102
}
330
C
100
AcDbDictionary
281
     1
  3
A0
350
43
  3
A1
350
44
  3
A2
350
45
  3
A3
350
46
  3
A4
350
47
  3
A5
350
48
  3
A6
350
49
  3
A7
350
4A
  3
A8
350
4B
  3
A9
350
4C
  3
B0
350
4D
  3
B1
350
4E
  3
B2
350
4F
  3
B3
350
50
  3
B4
350
51
  3
B5
350
52
  3
B6
350
53
  0
DICTIONARY
  5
68
102
{ACAD_REACTORS
330
C
102
}
330
C
100
AcDbDictionary
281
     1
  3
Imperial24
350
69
  3
Metric50
350
4FB
  0
DICTIONARY
  5
64
102
{ACAD_REACTORS
330
C
102
}
330
C
100
AcDbDictionary
281
     1
  3
Standard
350
65
  0
DICTIONARY
  5
29
102
{ACAD_REACTORS
330
C
102
}
330
C
100
AcDbDictionary
281
     1
  3
2dWireframe
350
2F
  3
Basic
350
2E
  3
Brighten
350
35
  3
ColorChange
350
39
  3
Conceptual
350
32
  3
Dim
350
34
  3
EdgeColorOff
350
41
  3
Facepattern
350
38
  3
Flat
350
2A
  3
FlatWithEdges
350
2B
  3
Gouraud
350
2C
  3
GouraudWithEdges
350
2D
  3
Hidden
350
31
  3
JitterOff
350
3F
  3
Linepattern
350
37
  3
OverhangOff
350
40
  3
Realistic
350
33
  3
Shaded
350
3E
  3
Shaded with edges
350
3D
  3
Shades of Gray
350
3A
  3
Sketchy
350
3B
  3
Thicken
350
36
  3
Wireframe
350
30
  3
X-Ray
350
3C
  0
XRECORD
  5
528
102
{ACAD_REACTORS
330
C
102
}
330
C
100
AcDbXrecord
280
     1
 90
        1
330
65
330
69
330
6B
330
154
330
156
330
157
330
158
330
159
330
15A
330
15C
330
15D
330
15E
330
15F
330
160
330
161
330
162
330
163
330
4FB
330
4FC
  0
DICTIONARY
  5
497
102
{ACAD_REACTORS
330
C
102
}
330
C
100
AcDbDictionary
281
     1
  3
CANNOSCALE
350
49C
  3
CMLEADERSTYLE
350
499
  3
CTABLESTYLE
350
498
  3
CVIEWDETAILSTYLE
350
49A
  3
CVIEWSECTIONSTYLE
350
49B
  0
XRECORD
  5
509
102
{ACAD_REACTORS
330
4A3
102
}
330
4A3
100
AcDbXrecord
280
     1
 70
     4
 70
     0
 70
     0
 40
1.0
  2
表面処理
  1
Embedded Object
 10
271.2581190367925
 20
242.2008952466959
 30
0.0
 40
3.000000119209288
 41
0.0
 46
0.0
 71
     5
 72
     5
  1

  7
文字スタイル39
 73
     1
 44
1.0
  0
XRECORD
  5
508
102
{ACAD_REACTORS
330
4A3
102
}
330
4A3
100
AcDbXrecord
280
     1
102
ACAD_MATT_HEIGHT
140
3.000000119209288
  0
XRECORD
  5
50B
102
{ACAD_REACTORS
330
4A6
102
}
330
4A6
100
AcDbXrecord
280
     1
 70
     4
 70
     0
 70
     0
 40
1.0
  2
熱処理
  1
Embedded Object
 10
295.2581190367927
 20
242.2008952466959
 30
0.0
 40
3.000000119209288
 41
0.0
 46
0.0
 71
     5
 72
     5
  1

  7
文字スタイル39
 73
     1
 44
1.0
  0
XRECORD
  5
50A
102
{ACAD_REACTORS
330
4A6
102
}
330
4A6
100
AcDbXrecord
280
     1
102
ACAD_MATT_HEIGHT
140
3.000000119209288
  0
XRECORD
  5
50D
102
{ACAD_REACTORS
330
4A9
102
}
330
4A9
100
AcDbXrecord
280
     1
 70
     4
 70
     0
 70
     0
 40
1.0
  2
製図
  1
Embedded Object
 10
316.2844436011273
 20
239.8690222142533
 30
0.0
 40
2.5
 41
0.0
 46
0.0
 71
     5
 72
     5
  1

  7
文字スタイル47
 73
     1
 44
1.0
  0
XRECORD
  5
50C
102
{ACAD_REACTORS
330
4A9
102
}
330
4A9
100
AcDbXrecord
280
     1
102
ACAD_MATT_HEIGHT
140
2.5
  0
XRECORD
  5
50F
102
{ACAD_REACTORS
330
4AC
102
}
330
4AC
100
AcDbXrecord
280
     1
 70
     4
 70
     0
 70
     0
 40
1.0
  2
名称
  1
Embedded Object
 10
239.8812854714781
 20
227.800895246696
 30
0.0
 40
3.000000119209288
 41
0.0
 46
0.0
 71
     4
 72
     5
  1

  7
文字スタイル39
 73
     1
 44
1.0
  0
XRECORD
  5
50E
102
{ACAD_REACTORS
330
4AC
102
}
330
4AC
100
AcDbXrecord
280
     1
102
ACAD_MATT_HEIGHT
140
3.000000119209288
  0
XRECORD
  5
511
102
{ACAD_REACTORS
330
4AF
102
}
330
4AF
100
AcDbXrecord
280
     1
 70
     4
 70
     0
 70
     0
 40
1.0
  2
図面番号
  1
Embedded Object
 10
239.8812854714781
 20
202.600895246696
 30
0.0
 40
3.000000119209288
 41
0.0
 46
0.0
 71
     4
 72
     5
  1

  7
文字スタイル39
 73
     1
 44
1.0
  0
XRECORD
  5
510
102
{ACAD_REACTORS
330
4AF
102
}
330
4AF
100
AcDbXrecord
280
     1
102
ACAD_MATT_HEIGHT
140
3.000000119209288
  0
XRECORD
  5
513
102
{ACAD_REACTORS
330
4B2
102
}
330
4B2
100
AcDbXrecord
280
     1
 70
     4
 70
     0
 70
     0
 40
1.0
  2
図面名称
  1
Embedded Object
 10
239.8812854714781
 20
214.600895246696
 30
0.0
 40
3.000000119209288
 41
0.0
 46
0.0
 71
     4
 72
     5
  1

  7
文字スタイル39
 73
     1
 44
1.0
  0
XRECORD
  5
512
102
{ACAD_REACTORS
330
4B2
102
}
330
4B2
100
AcDbXrecord
280
     1
102
ACAD_MATT_HEIGHT
140
3.000000119209288
  0
XRECORD
  5
515
102
{ACAD_REACTORS
330
4B5
102
}
330
4B5
100
AcDbXrecord
280
     1
 70
     4
 70
     0
 70
     0
 40
1.0
  2
製図日
  1
Embedded Object
 10
316.2999861141697
 20
245.707108282235
 30
0.0
 40
2.000000029802321
 41
0.0
 46
0.0
 71
     5
 72
     5
  1

  7
文字スタイル49
 73
     1
 44
1.0
  0
XRECORD
  5
514
102
{ACAD_REACTORS
330
4B5
102
}
330
4B5
100
AcDbXrecord
280
     1
102
ACAD_MATT_HEIGHT
140
2.000000029802321
  0
XRECORD
  5
517
102
{ACAD_REACTORS
330
4B8
102
}
330
4B8
100
AcDbXrecord
280
     1
 70
     4
 70
     0
 70
     0
 40
1.0
  2
材料
  1
Embedded Object
 10
247.2581190367926
 20
242.2008952466959
 30
0.0
 40
3.000000119209288
 41
0.0
 46
0.0
 71
     5
 72
     5
  1
一般
  7
文字スタイル39
 73
     1
 44
1.0
  0
XRECORD
  5
516
102
{ACAD_REACTORS
330
4B8
102
}
330
4B8
100
AcDbXrecord
280
     1
102
ACAD_MATT_HEIGHT
140
3.000000119209288
  0
XRECORD
  5
519
102
{ACAD_REACTORS
330
4BB
102
}
330
4BB
100
AcDbXrecord
280
     1
 70
     4
 70
     0
 70
     0
 40
1.0
  2
個数
  1
Embedded Object
 10
226.2581190367925
 20
242.2008952466959
 30
0.0
 40
3.000000119209288
 41
0.0
 46
0.0
 71
     5
 72
     5
  1

  7
文字スタイル39
 73
     1
 44
1.0
  0
XRECORD
  5
518
102
{ACAD_REACTORS
330
4BB
102
}
330
4BB
100
AcDbXrecord
280
     1
102
ACAD_MATT_HEIGHT
140
3.000000119209288
  0
XRECORD
  5
51B
102
{ACAD_REACTORS
330
4BE
102
}
330
4BE
100
AcDbXrecord
280
     1
 70
     4
 70
     0
 70
     0
 40
1.0
  2
初期ビュー尺度
  1
Embedded Object
 10
208.2581190367926
 20
242.2008952466959
 30
0.0
 40
3.000000119209288
 41
0.0
 46
0.0
 71
     5
 72
     5
  1
1 : 1
  7
文字スタイル39
 73
     1
 44
1.0
  0
XRECORD
  5
51A
102
{ACAD_REACTORS
330
4BE
102
}
330
4BE
100
AcDbXrecord
280
     1
102
ACAD_MATT_HEIGHT
140
3.000000119209288
  0
XRECORD
  5
51D
102
{ACAD_REACTORS
330
4C1
102
}
330
4C1
100
AcDbXrecord
280
     1
 70
     4
 70
     0
 70
     0
 40
1.0
  2
検図日
  1
Embedded Object
 10
334.464827863855
 20
245.7374073187235
 30
0.0
 40
2.000000029802321
 41
0.0
 46
0.0
 71
     5
 72
     5
  1

  7
文字スタイル49
 73
     1
 44
1.0
  0
XRECORD
  5
51C
102
{ACAD_REACTORS
330
4C1
102
}
330
4C1
100
AcDbXrecord
280
     1
102
ACAD_MATT_HEIGHT
140
2.000000029802321
  0
XRECORD
  5
51F
102
{ACAD_REACTORS
330
4C4
102
}
330
4C4
100
AcDbXrecord
280
     1
 70
     4
 70
     0
 70
     0
 40
1.0
  2
承認日
  1
Embedded Object
 10
352.7323781574681
 20
245.6657341321514
 30
0.0
 40
2.000000029802321
 41
0.0
 46
0.0
 71
     5
 72
     5
  1

  7
文字スタイル49
 73
     1
 44
1.0
  0
XRECORD
  5
51E
102
{ACAD_REACTORS
330
4C4
102
}
330
4C4
100
AcDbXrecord
280
     1
102
ACAD_MATT_HEIGHT
140
2.000000029802321
  0
XRECORD
  5
521
102
{ACAD_REACTORS
330
4C7
102
}
330
4C7
100
AcDbXrecord
280
     1
 70
     4
 70
     0
 70
     0
 40
1.0
  2
検図
  1
Embedded Object
 10
334.3470658653624
 20
239.9635154504188
 30
0.0
 40
2.5
 41
0.0
 46
0.0
 71
     5
 72
     5
  1

  7
文字スタイル47
 73
     1
 44
1.0
  0
XRECORD
  5
520
102
{ACAD_REACTORS
330
4C7
102
}
330
4C7
100
AcDbXrecord
280
     1
102
ACAD_MATT_HEIGHT
140
2.5
  0
XRECORD
  5
523
102
{ACAD_REACTORS
330
4CA
102
}
330
4CA
100
AcDbXrecord
280
     1
 70
     4
 70
     0
 70
     0
 40
1.0
  2
承認
  1
Embedded Object
 10
352.6400487657187
 20
239.9812218124461
 30
0.0
 40
2.5
 41
0.0
 46
0.0
 71
     5
 72
     5
  1

  7
文字スタイル47
 73
     1
 44
1.0
  0
XRECORD
  5
522
102
{ACAD_REACTORS
330
4CA
102
}
330
4CA
100
AcDbXrecord
280
     1
102
ACAD_MATT_HEIGHT
140
2.5
  0
ACDBDETAILVIEWSTYLE
  5
6B
102
{ACAD_XDICTIONARY
360
4A1
102
}
102
{ACAD_REACTORS
330
6A
102
}
330
6A
100
AcDbModelDocViewStyle
 70
     0
  3
Imperial24
290
     0
100
AcDbDetailViewStyle
 70
     0
 71
     0
 90
        3
 71
     1
340
55
 62
   256
 40
0.24
340
0
 62
   256
 40
0.24
300

 40
0.36
280
     3
 71
     2
340
5D
 90
       25
 62
   256
 71
     3
340
55
 62
   256
 40
0.24
 90
        1
 40
0.75
 90
        1
300
%<\AcVar ViewType \f "%tc1">% %<\AcVar ViewDetailId>%\PSCALE %<\AcVar ViewScale \f "%sn">%
 71
     4
340
5D
 90
       25
 62
   256
340
5D
 90
       25
 62
   256
280
     0
  0
ACDBDETAILVIEWSTYLE
  5
4FC
102
{ACAD_XDICTIONARY
360
526
102
}
102
{ACAD_REACTORS
330
6A
102
}
330
6A
100
AcDbModelDocViewStyle
 70
     0
  3
Metric50
290
     0
100
AcDbDetailViewStyle
 70
     0
 71
     0
 90
        3
 71
     1
340
55
 62
   256
 40
5.0
340
0
 62
   256
 40
5.0
300

 40
0.0
280
     1
 71
     2
340
5D
 90
       25
 62
   256
 71
     3
340
55
 62
   256
 40
5.0
 90
        0
 40
15.0
 90
        1
300
%<\AcVar ViewDetailId>% (%<\AcVar ViewScale \f "%sn">%)
 71
     4
340
5D
 90
       25
 62
   256
340
5D
 90
       25
 62
   256
280
     0
  0
LAYOUT
  5
73
102
{ACAD_REACTORS
330
62
102
}
330
62
100
AcDbPlotSettings
  1

  2

  4

  6

 40
0.0
 41
0.0
 42
0.0
 43
0.0
 44
0.0
 45
0.0
 46
0.0
 47
0.0
 48
0.0
 49
0.0
140
0.0
141
0.0
142
1.0
143
1.0
 70
  1712
 72
     0
 73
     0
 74
     0
  7

 75
     0
147
1.0
 76
     0
 77
     2
 78
   300
148
0.0
149
0.0
100
AcDbLayout
  1
Model
 70
     1
 71
     0
 10
0.0
 20
0.0
 11
12.0
 21
9.0
 12
0.0
 22
0.0
 32
0.0
 14
0.0
 24
0.0
 34
0.0
 15
0.0
 25
0.0
 35
0.0
146
0.0
 13
0.0
 23
0.0
 33
0.0
 16
1.0
 26
0.0
 36
0.0
 17
0.0
 27
1.0
 37
0.0
 76
     0
330
70
331
57
  0
LAYOUT
  5
6F
102
{ACAD_REACTORS
330
62
102
}
330
62
100
AcDbPlotSettings
  1

  2

  4

  6

 40
0.0
 41
0.0
 42
0.0
 43
0.0
 44
0.0
 45
0.0
 46
0.0
 47
0.0
 48
0.0
 49
0.0
140
0.0
141
0.0
142
1.0
143
1.0
 70
   688
 72
     0
 73
     0
 74
     5
  7

 75
    16
147
1.0
 76
     0
 77
     2
 78
   300
148
0.0
149
0.0
100
AcDbLayout
  1
レイアウト1
 70
     1
 71
     1
 10
0.0
 20
0.0
 11
420.0
 21
297.0
 12
0.0
 22
0.0
 32
0.0
 14
0.0
 24
0.0
 34
0.0
 15
420.0
 25
297.0
 35
0.0
146
0.0
 13
0.0
 23
0.0
 33
0.0
 16
1.0
 26
0.0
 36
0.0
 17
0.0
 27
1.0
 37
0.0
 76
     0
330
6C
  0
LAYOUT
  5
77
102
{ACAD_REACTORS
330
62
102
}
330
62
100
AcDbPlotSettings
  1

  2

  4

  6

 40
0.0
 41
0.0
 42
0.0
 43
0.0
 44
0.0
 45
0.0
 46
0.0
 47
0.0
 48
0.0
 49
0.0
140
0.0
141
0.0
142
1.0
143
1.0
 70
   688
 72
     0
 73
     0
 74
     5
  7

 75
    16
147
1.0
 76
     0
 77
     2
 78
   300
148
0.0
149
0.0
100
AcDbLayout
  1
レイアウト2
 70
     1
 71
     2
 10
0.0
 20
0.0
 11
12.0
 21
9.0
 12
0.0
 22
0.0
 32
0.0
 14
0.0
 24
0.0
 34
0.0
 15
0.0
 25
0.0
 35
0.0
146
0.0
 13
0.0
 23
0.0
 33
0.0
 16
1.0
 26
0.0
 36
0.0
 17
0.0
 27
1.0
 37
0.0
 76
     0
330
74
  0
MATERIAL
  5
19
102
{ACAD_XDICTIONARY
360
1A
102
}
102
{ACAD_REACTORS
330
10
102
}
330
10
100
AcDbMaterial
  1
ByBlock
 72
     0
 43
0.0208333333333333
 43
0.0
 43
0.0
 43
0.0
 43
0.0
 43
0.0208333333333333
 43
0.0
 43
0.0
 43
0.0
 43
0.0
 43
1.0
 43
0.0
 43
0.0
 43
0.0
 43
0.0
 43
1.0
 77
     0
 47
0.0208333333333333
 47
0.0
 47
0.0
 47
0.0
 47
0.0
 47
0.0208333333333333
 47
0.0
 47
0.0
 47
0.0
 47
0.0
 47
1.0
 47
0.0
 47
0.0
 47
0.0
 47
0.0
 47
1.0
171
     0
 49
0.0208333333333333
 49
0.0
 49
0.0
 49
0.0
 49
0.0
 49
0.0208333333333333
 49
0.0
 49
0.0
 49
0.0
 49
0.0
 49
1.0
 49
0.0
 49
0.0
 49
0.0
 49
0.0
 49
1.0
175
     0
142
0.0208333333333333
142
0.0
142
0.0
142
0.0
142
0.0
142
0.0208333333333333
142
0.0
142
0.0
142
0.0
142
0.0
142
1.0
142
0.0
142
0.0
142
0.0
142
0.0
142
1.0
179
     0
144
0.0208333333333333
144
0.0
144
0.0
144
0.0
144
0.0
144
0.0208333333333333
144
0.0
144
0.0
144
0.0
144
0.0
144
1.0
144
0.0
144
0.0
144
0.0
144
0.0
144
1.0
147
0.0208333333333333
147
0.0
147
0.0
147
0.0
147
0.0
147
0.0208333333333333
147
0.0
147
0.0
147
0.0
147
0.0
147
1.0
147
0.0
147
0.0
147
0.0
147
0.0
147
1.0
  0
MATERIAL
  5
11
102
{ACAD_XDICTIONARY
360
12
102
}
102
{ACAD_REACTORS
330
10
102
}
330
10
100
AcDbMaterial
  1
ByLayer
 72
     0
 43
0.0208333333333333
 43
0.0
 43
0.0
 43
0.0
 43
0.0
 43
0.0208333333333333
 43
0.0
 43
0.0
 43
0.0
 43
0.0
 43
1.0
 43
0.0
 43
0.0
 43
0.0
 43
0.0
 43
1.0
 77
     0
 47
0.0208333333333333
 47
0.0
 47
0.0
 47
0.0
 47
0.0
 47
0.0208333333333333
 47
0.0
 47
0.0
 47
0.0
 47
0.0
 47
1.0
 47
0.0
 47
0.0
 47
0.0
 47
0.0
 47
1.0
171
     0
 49
0.0208333333333333
 49
0.0
 49
0.0
 49
0.0
 49
0.0
 49
0.0208333333333333
 49
0.0
 49
0.0
 49
0.0
 49
0.0
 49
1.0
 49
0.0
 49
0.0
 49
0.0
 49
0.0
 49
1.0
175
     0
142
0.0208333333333333
142
0.0
142
0.0
142
0.0
142
0.0
142
0.0208333333333333
142
0.0
142
0.0
142
0.0
142
0.0
142
1.0
142
0.0
142
0.0
142
0.0
142
0.0
142
1.0
179
     0
144
0.0208333333333333
144
0.0
144
0.0
144
0.0
144
0.0
144
0.0208333333333333
144
0.0
144
0.0
144
0.0
144
0.0
144
1.0
144
0.0
144
0.0
144
0.0
144
0.0
144
1.0
147
0.0208333333333333
147
0.0
147
0.0
147
0.0
147
0.0
147
0.0208333333333333
147
0.0
147
0.0
147
0.0
147
0.0
147
1.0
147
0.0
147
0.0
147
0.0
147
0.0
147
1.0
  0
MATERIAL
  5
21
102
{ACAD_XDICTIONARY
360
22
102
}
102
{ACAD_REACTORS
330
10
102
}
330
10
100
AcDbMaterial
  1
Global
 72
     0
 43
0.0208333333333333
 43
0.0
 43
0.0
 43
0.0
 43
0.0
 43
0.0208333333333333
 43
0.0
 43
0.0
 43
0.0
 43
0.0
 43
1.0
 43
0.0
 43
0.0
 43
0.0
 43
0.0
 43
1.0
 77
     0
 47
0.0208333333333333
 47
0.0
 47
0.0
 47
0.0
 47
0.0
 47
0.0208333333333333
 47
0.0
 47
0.0
 47
0.0
 47
0.0
 47
1.0
 47
0.0
 47
0.0
 47
0.0
 47
0.0
 47
1.0
171
     0
 49
0.0208333333333333
 49
0.0
 49
0.0
 49
0.0
 49
0.0
 49
0.0208333333333333
 49
0.0
 49
0.0
 49
0.0
 49
0.0
 49
1.0
 49
0.0
 49
0.0
 49
0.0
 49
0.0
 49
1.0
175
     0
142
0.0208333333333333
142
0.0
142
0.0
142
0.0
142
0.0
142
0.0208333333333333
142
0.0
142
0.0
142
0.0
142
0.0
142
1.0
142
0.0
142
0.0
142
0.0
142
0.0
142
1.0
179
     0
144
0.0208333333333333
144
0.0
144
0.0
144
0.0
144
0.0
144
0.0208333333333333
144
0.0
144
0.0
144
0.0
144
0.0
144
1.0
144
0.0
144
0.0
144
0.0
144
0.0
144
1.0
147
0.0208333333333333
147
0.0
147
0.0
147
0.0
147
0.0
147
0.0208333333333333
147
0.0
147
0.0
147
0.0
147
0.0
147
1.0
147
0.0
147
0.0
147
0.0
147
0.0
147
1.0
  0
MLEADERSTYLE
  5
67
102
{ACAD_REACTORS
330
66
102
}
330
66
100
AcDbMLeaderStyle
179
     2
170
     2
171
     1
172
     0
 90
        2
 40
0.0
 41
0.0
173
     1
 91
-1056964608
340
5B
 92
       -2
290
     1
 42
0.09
291
     1
 43
0.36
  3
Standard
 44
0.18
300

342
55
174
     1
178
     6
175
     1
176
     0
 93
-1056964608
 45
0.18
292
     0
297
     0
 46
0.18
 94
-1056964608
 47
1.0
 49
1.0
140
1.0
293
     1
141
0.0
294
     1
177
     0
142
1.0
295
     0
296
     0
143
0.125
271
     0
272
     9
273
     9
298
     1
  0
MLINESTYLE
  5
60
102
{ACAD_REACTORS
330
5F
102
}
330
5F
100
AcDbMlineStyle
  2
STANDARD
 70
     0
  3

 62
   256
 51
90.0
 52
90.0
 71
     2
 49
0.5
 62
   256
  6
BYLAYER
 49
-0.5
 62
   256
  6
BYLAYER
  0
ACDBPLACEHOLDER
  5
F
102
{ACAD_REACTORS
330
E
102
}
330
E
  0
SCALE
  5
43
102
{ACAD_REACTORS
330
42
102
}
330
42
100
AcDbScale
 70
     0
300
1:1
140
1.0
141
1.0
290
     1
  0
SCALE
  5
44
102
{ACAD_REACTORS
330
42
102
}
330
42
100
AcDbScale
 70
     0
300
1/128" = 1'-0"
140
0.0078125
141
12.0
290
     0
  0
SCALE
  5
45
102
{ACAD_REACTORS
330
42
102
}
330
42
100
AcDbScale
 70
     0
300
1/64" = 1'-0"
140
0.015625
141
12.0
290
     0
  0
SCALE
  5
46
102
{ACAD_REACTORS
330
42
102
}
330
42
100
AcDbScale
 70
     0
300
1/32" = 1'-0"
140
0.03125
141
12.0
290
     0
  0
SCALE
  5
47
102
{ACAD_REACTORS
330
42
102
}
330
42
100
AcDbScale
 70
     0
300
1/16" = 1'-0"
140
0.0625
141
12.0
290
     0
  0
SCALE
  5
48
102
{ACAD_REACTORS
330
42
102
}
330
42
100
AcDbScale
 70
     0
300
3/32" = 1'-0"
140
0.09375
141
12.0
290
     0
  0
SCALE
  5
49
102
{ACAD_REACTORS
330
42
102
}
330
42
100
AcDbScale
 70
     0
300
1/8" = 1'-0"
140
0.125
141
12.0
290
     0
  0
SCALE
  5
4A
102
{ACAD_REACTORS
330
42
102
}
330
42
100
AcDbScale
 70
     0
300
3/16" = 1'-0"
140
0.1875
141
12.0
290
     0
  0
SCALE
  5
4B
102
{ACAD_REACTORS
330
42
102
}
330
42
100
AcDbScale
 70
     0
300
1/4" = 1'-0"
140
0.25
141
12.0
290
     0
  0
SCALE
  5
4C
102
{ACAD_REACTORS
330
42
102
}
330
42
100
AcDbScale
 70
     0
300
3/8" = 1'-0"
140
0.375
141
12.0
290
     0
  0
SCALE
  5
4D
102
{ACAD_REACTORS
330
42
102
}
330
42
100
AcDbScale
 70
     0
300
1/2" = 1'-0"
140
0.5
141
12.0
290
     0
  0
SCALE
  5
4E
102
{ACAD_REACTORS
330
42
102
}
330
42
100
AcDbScale
 70
     0
300
3/4" = 1'-0"
140
0.75
141
12.0
290
     0
  0
SCALE
  5
4F
102
{ACAD_REACTORS
330
42
102
}
330
42
100
AcDbScale
 70
     0
300
1" = 1'-0"
140
1.0
141
12.0
290
     0
  0
SCALE
  5
50
102
{ACAD_REACTORS
330
42
102
}
330
42
100
AcDbScale
 70
     0
300
1-1/2" = 1'-0"
140
1.5
141
12.0
290
     0
  0
SCALE
  5
51
102
{ACAD_REACTORS
330
42
102
}
330
42
100
AcDbScale
 70
     0
300
3" = 1'-0"
140
3.0
141
12.0
290
     0
  0
SCALE
  5
52
102
{ACAD_REACTORS
330
42
102
}
330
42
100
AcDbScale
 70
     0
300
6" = 1'-0"
140
6.0
141
12.0
290
     0
  0
SCALE
  5
53
102
{ACAD_REACTORS
330
42
102
}
330
42
100
AcDbScale
 70
     0
300
1'-0" = 1'-0"
140
12.0
141
12.0
290
     0
  0
ACDBSECTIONVIEWSTYLE
  5
69
102
{ACAD_XDICTIONARY
360
49F
102
}
102
{ACAD_REACTORS
330
68
102
}
330
68
100
AcDbModelDocViewStyle
 70
     0
  3
Imperial24
290
     0
100
AcDbSectionViewStyle
 70
     0
 71
     0
 90
       78
 71
     1
340
55
 62
   256
 40
0.24
340
0
340
0
 62
   256
 40
0.24
300
I, O, Q, S, X, Z
 40
0.48
 90
        3
 40
0.18
 90
        1
 71
     2
340
5D
 90
       25
 62
   256
340
5D
 90
       50
 62
   256
 40
0.24
 40
0.0
 40
0.24
 71
     3
340
55
 62
   256
 40
0.24
 90
        1
 40
0.75
 90
        1
300
%<\AcVar ViewType \f "%tc1">% %<\AcVar ViewSectionStartId>%-%<\AcVar ViewSectionEndId>%\PSCALE %<\AcVar ViewScale \f "%sn">%
 71
     4
 62
   256
 62
   257
300
ANSI31
 40
1.0
 90
        0
290
     0
290
     0
 90
        6
 40
0.0
 40
1.570796326794896
 40
0.2617993877991494
 40
1.308996938995747
 40
-0.2617993877991494
 40
1.832595714594045
  0
ACDBSECTIONVIEWSTYLE
  5
4FB
102
{ACAD_XDICTIONARY
360
524
102
}
102
{ACAD_REACTORS
330
68
102
}
330
68
100
AcDbModelDocViewStyle
 70
     0
  3
Metric50
290
     0
100
AcDbSectionViewStyle
 70
     0
 71
     0
 90
      102
 71
     1
340
55
 62
   256
 40
5.0
340
0
340
0
 62
   256
 40
5.0
300
I, O, Q, S, X, Z
 40
10.0
 90
        0
 40
2.5
 90
        0
 71
     2
340
5D
 90
       25
 62
   256
340
5D
 90
       50
 62
   256
 40
5.0
 40
2.5
 40
5.0
 71
     3
340
55
 62
   256
 40
5.0
 90
        0
 40
15.0
 90
        1
300
%<\AcVar ViewSectionStartId>%-%<\AcVar ViewSectionEndId>% (%<\AcVar ViewScale \f "%sn">%)
 71
     4
 62
   256
 62
   257
300
ANSI31
 40
1.0
 90
        0
290
     0
290
     0
 90
        6
 40
0.0
 40
1.570796326794896
 40
0.2617993877991494
 40
1.308996938995747
 40
-0.2617993877991494
 40
1.832595714594046
  0
TABLESTYLE
  5
65
102
{ACAD_XDICTIONARY
360
49D
102
}
102
{ACAD_REACTORS
330
64
102
}
330
64
100
AcDbTableStyle
280
     0
  3
Standard
 70
     0
 71
     0
 40
0.06
 41
0.06
280
     0
281
     0
  7
Standard
140
0.18
170
     2
 62
     0
 63
     7
283
     0
 90
      512
 91
        0
  1

274
    -2
284
     1
 64
     0
275
    -2
285
     1
 65
     0
276
    -2
286
     1
 66
     0
277
    -2
287
     1
 67
     0
278
    -2
288
     1
 68
     0
279
    -2
289
     1
 69
     0
  7
Standard
140
0.25
170
     5
 62
     0
 63
     7
283
     0
 90
      512
 91
        0
  1

274
    -2
284
     1
 64
     0
275
    -2
285
     1
 65
     0
276
    -2
286
     1
 66
     0
277
    -2
287
     1
 67
     0
278
    -2
288
     1
 68
     0
279
    -2
289
     1
 69
     0
  7
Standard
140
0.18
170
     5
 62
     0
 63
     7
283
     0
 90
      512
 91
        0
  1

274
    -2
284
     1
 64
     0
275
    -2
285
     1
 65
     0
276
    -2
286
     1
 66
     0
277
    -2
287
     1
 67
     0
278
    -2
288
     1
 68
     0
279
    -2
289
     1
 69
     0
  0
VISUALSTYLE
  5
2F
102
{ACAD_REACTORS
330
29
102
}
330
29
100
AcDbVisualStyle
  2
2dWireframe
 70
     4
177
     3
291
     0
 70
    58
 90
        0
176
     1
 90
        2
176
     1
 90
        0
176
     1
 90
        0
176
     1
 40
0.6
176
     1
 40
30.0
176
     1
 62
     7
420
 16777215
176
     1
 90
        1
176
     1
 90
        4
176
     1
 62
     7
176
     1
 62
   257
176
     1
 90
        1
176
     1
 90
        1
176
     1
 40
1.0
176
     1
 90
        0
176
     1
 62
   257
176
     1
 40
1.0
176
     1
 90
        1
176
     1
 90
        6
176
     1
 90
        2
176
     1
 62
     7
176
     1
 90
        5
176
     1
 90
        0
176
     1
 90
        0
176
     1
290
     0
176
     1
 90
        1
176
     1
 40
0.0
176
     1
 90
        0
176
     1
290
     1
176
     1
290
     1
176
     1
290
     0
176
     1
290
     0
176
     1
290
     0
176
     1
290
     0
176
     1
290
     0
176
     1
290
     0
176
     1
290
     0
176
     1
 90
       50
176
     1
 40
0.0
176
     1
 40
1.0
176
     1
 90
        0
176
     1
 62
    18
176
     1
 90
       50
176
     1
 90
        3
176
     1
 62
     5
420
      255
176
     1
290
     0
176
     1
 90
       50
176
     1
 90
       50
176
     1
 90
       50
176
     1
290
     0
176
     1
 90
       50
176
     1
 62
   256
176
     0
 40
1.0
176
     0
 90
        2
176
     1
  1
strokes_ogs.tif
176
     1
290
     0
176
     1
 40
1.0
176
     1
 40
1.0
176
     1
  0
VISUALSTYLE
  5
2E
102
{ACAD_REACTORS
330
29
102
}
330
29
100
AcDbVisualStyle
  2
Basic
 70
     7
177
     3
291
     1
 70
    58
 90
        1
176
     1
 90
        0
176
     1
 90
        1
176
     1
 90
        0
176
     1
 40
0.6
176
     1
 40
30.0
176
     1
 62
     7
420
 16777215
176
     1
 90
        0
176
     1
 90
        4
176
     1
 62
     7
176
     1
 62
   257
176
     1
 90
        1
176
     1
 90
        1
176
     1
 40
1.0
176
     1
 90
        8
176
     1
 62
     7
176
     1
 40
1.0
176
     1
 90
        1
176
     1
 90
        6
176
     1
 90
        2
176
     1
 62
     7
176
     1
 90
        5
176
     1
 90
        0
176
     1
 90
        0
176
     1
290
     0
176
     1
 90
        1
176
     1
 40
0.0
176
     1
 90
        0
176
     1
290
     0
176
     1
290
     1
176
     1
290
     1
176
     1
290
     0
176
     1
290
     0
176
     1
290
     0
176
     1
290
     0
176
     1
290
     0
176
     1
290
     0
176
     1
 90
       50
176
     1
 40
0.0
176
     1
 40
1.0
176
     1
 90
        0
176
     1
 62
    18
176
     1
 90
       50
176
     1
 90
        3
176
     1
 62
     5
420
      255
176
     1
290
     0
176
     1
 90
       50
176
     1
 90
       50
176
     1
 90
       50
176
     1
290
     0
176
     1
 90
       50
176
     1
 62
   256
176
     0
 40
1.0
176
     0
 90
        2
176
     1
  1
strokes_ogs.tif
176
     1
290
     0
176
     1
 40
1.0
176
     1
 40
1.0
176
     1
  0
VISUALSTYLE
  5
35
102
{ACAD_REACTORS
330
29
102
}
330
29
100
AcDbVisualStyle
  2
Brighten
 70
    12
177
     3
291
     1
 70
    58
 90
        2
176
     1
 90
        2
176
     1
 90
        0
176
     1
 90
        0
176
     1
 40
0.6
176
     1
 40
30.0
176
     1
 62
     7
420
 16777215
176
     1
 90
        1
176
     1
 90
        4
176
     1
 62
     7
176
     1
 62
   257
176
     1
 90
        1
176
     1
 90
        1
176
     1
 40
1.0
176
     1
 90
        8
176
     1
 62
     7
176
     1
 40
1.0
176
     1
 90
        1
176
     1
 90
        6
176
     1
 90
        2
176
     1
 62
     7
176
     1
 90
        5
176
     1
 90
        0
176
     1
 90
        0
176
     1
290
     0
176
     1
 90
        1
176
     1
 40
50.0
176
     1
 90
        0
176
     1
290
     0
176
     1
290
     1
176
     1
290
     1
176
     1
290
     0
176
     1
290
     0
176
     1
290
     0
176
     1
290
     0
176
     1
290
     0
176
     1
290
     0
176
     1
 90
       50
176
     1
 40
0.0
176
     1
 40
1.0
176
     1
 90
        0
176
     1
 62
    18
176
     1
 90
       50
176
     1
 90
        3
176
     1
 62
     5
420
      255
176
     1
290
     0
176
     1
 90
       50
176
     1
 90
       50
176
     1
 90
       50
176
     1
290
     0
176
     1
 90
       50
176
     1
 62
   256
176
     0
 40
1.0
176
     0
 90
        2
176
     1
  1
strokes_ogs.tif
176
     1
290
     0
176
     1
 40
1.0
176
     1
 40
1.0
176
     1
  0
VISUALSTYLE
  5
39
102
{ACAD_REACTORS
330
29
102
}
330
29
100
AcDbVisualStyle
  2
ColorChange
 70
    16
177
     3
291
     1
 70
    58
 90
        2
176
     1
 90
        2
176
     1
 90
        3
176
     1
 90
        0
176
     1
 40
0.6
176
     1
 40
30.0
176
     1
 62
     8
420
  8421504
176
     1
 90
        1
176
     1
 90
        4
176
     1
 62
     7
176
     1
 62
   257
176
     1
 90
        1
176
     1
 90
        1
176
     1
 40
1.0
176
     1
 90
        8
176
     1
 62
     8
420
  8421504
176
     1
 40
1.0
176
     1
 90
        1
176
     1
 90
        6
176
     1
 90
        2
176
     1
 62
     7
176
     1
 90
        5
176
     1
 90
        0
176
     1
 90
        0
176
     1
290
     0
176
     1
 90
        1
176
     1
 40
0.0
176
     1
 90
        0
176
     1
290
     0
176
     1
290
     1
176
     1
290
     1
176
     1
290
     0
176
     1
290
     0
176
     1
290
     0
176
     1
290
     0
176
     1
290
     0
176
     1
290
     0
176
     1
 90
       50
176
     1
 40
0.0
176
     1
 40
1.0
176
     1
 90
        0
176
     1
 62
    18
176
     1
 90
       50
176
     1
 90
        3
176
     1
 62
     5
420
      255
176
     1
290
     0
176
     1
 90
       50
176
     1
 90
       50
176
     1
 90
       50
176
     1
290
     0
176
     1
 90
       50
176
     1
 62
   256
176
     0
 40
1.0
176
     0
 90
        2
176
     1
  1
strokes_ogs.tif
176
     1
290
     0
176
     1
 40
1.0
176
     1
 40
1.0
176
     1
  0
VISUALSTYLE
  5
32
102
{ACAD_REACTORS
330
29
102
}
330
29
100
AcDbVisualStyle
  2
Conceptual
 70
     9
177
     3
291
     0
 70
    58
 90
        3
176
     1
 90
        2
176
     1
 90
        0
176
     1
 90
        0
176
     1
 40
0.6
176
     1
 40
30.0
176
     1
 62
     7
420
 16777215
176
     1
 90
        2
176
     1
 90
        2
176
     1
 62
     7
176
     1
 62
   257
176
     1
 90
        1
176
     1
 90
        1
176
     1
 40
179.0
176
     1
 90
        8
176
     1
 62
     7
176
     1
 40
1.0
176
     1
 90
        1
176
     1
 90
        6
176
     1
 90
        2
176
     1
 62
     7
176
     1
 90
        3
176
     1
 90
        0
176
     1
 90
        0
176
     1
290
     0
176
     1
 90
        1
176
     1
 40
0.0
176
     1
 90
        0
176
     1
290
     0
176
     1
290
     1
176
     1
290
     1
176
     1
290
     0
176
     1
290
     0
176
     1
290
     0
176
     1
290
     0
176
     1
290
     0
176
     1
290
     0
176
     1
 90
       50
176
     1
 40
0.0
176
     1
 40
1.0
176
     1
 90
        0
176
     1
 62
    18
176
     1
 90
       50
176
     1
 90
        3
176
     1
 62
     5
420
      255
176
     1
290
     0
176
     1
 90
       50
176
     1
 90
       50
176
     1
 90
       50
176
     1
290
     0
176
     1
 90
       50
176
     1
 62
   256
176
     0
 40
1.0
176
     0
 90
        2
176
     1
  1
strokes_ogs.tif
176
     1
290
     0
176
     1
 40
1.0
176
     1
 40
1.0
176
     1
  0
VISUALSTYLE
  5
34
102
{ACAD_REACTORS
330
29
102
}
330
29
100
AcDbVisualStyle
  2
Dim
 70
    11
177
     3
291
     1
 70
    58
 90
        2
176
     1
 90
        2
176
     1
 90
        0
176
     1
 90
        0
176
     1
 40
0.6
176
     1
 40
30.0
176
     1
 62
     7
420
 16777215
176
     1
 90
        1
176
     1
 90
        4
176
     1
 62
     7
176
     1
 62
   257
176
     1
 90
        1
176
     1
 90
        1
176
     1
 40
1.0
176
     1
 90
        8
176
     1
 62
     7
176
     1
 40
1.0
176
     1
 90
        1
176
     1
 90
        6
176
     1
 90
        2
176
     1
 62
     7
176
     1
 90
        5
176
     1
 90
        0
176
     1
 90
        0
176
     1
290
     0
176
     1
 90
        1
176
     1
 40
-50.0
176
     1
 90
        0
176
     1
290
     0
176
     1
290
     1
176
     1
290
     1
176
     1
290
     0
176
     1
290
     0
176
     1
290
     0
176
     1
290
     0
176
     1
290
     0
176
     1
290
     0
176
     1
 90
       50
176
     1
 40
0.0
176
     1
 40
1.0
176
     1
 90
        0
176
     1
 62
    18
176
     1
 90
       50
176
     1
 90
        3
176
     1
 62
     5
420
      255
176
     1
290
     0
176
     1
 90
       50
176
     1
 90
       50
176
     1
 90
       50
176
     1
290
     0
176
     1
 90
       50
176
     1
 62
   256
176
     0
 40
1.0
176
     0
 90
        2
176
     1
  1
strokes_ogs.tif
176
     1
290
     0
176
     1
 40
1.0
176
     1
 40
1.0
176
     1
  0
VISUALSTYLE
  5
41
102
{ACAD_REACTORS
330
29
102
}
330
29
100
AcDbVisualStyle
  2
EdgeColorOff
 70
    22
177
     3
291
     1
 70
    58
 90
        2
176
     0
 90
        2
176
     0
 90
        0
176
     0
 90
        0
176
     0
 40
0.6
176
     0
 40
30.0
176
     0
 62
     7
420
 16777215
176
     0
 90
        1
176
     0
 90
        4
176
     0
 62
     7
176
     0
 62
   257
176
     0
 90
        1
176
     0
 90
        1
176
     0
 40
1.0
176
     0
 90
        8
176
     2
 62
     7
176
     0
 40
1.0
176
     0
 90
        1
176
     0
 90
        6
176
     0
 90
        2
176
     0
 62
     7
176
     0
 90
        5
176
     0
 90
        0
176
     0
 90
        0
176
     0
290
     0
176
     0
 90
        1
176
     0
 40
0.0
176
     0
 90
        0
176
     0
290
     0
176
     0
290
     1
176
     0
290
     1
176
     0
290
     0
176
     0
290
     0
176
     0
290
     0
176
     0
290
     0
176
     0
290
     0
176
     0
290
     0
176
     0
 90
       50
176
     0
 40
0.0
176
     0
 40
1.0
176
     0
 90
        0
176
     0
 62
    18
176
     0
 90
       50
176
     0
 90
        3
176
     0
 62
     5
420
      255
176
     0
290
     0
176
     0
 90
       50
176
     0
 90
       50
176
     0
 90
       50
176
     0
290
     0
176
     0
 90
       50
176
     0
 62
   256
176
     0
 40
1.0
176
     0
 90
        2
176
     0
  1
strokes_ogs.tif
176
     0
290
     0
176
     0
 40
1.0
176
     0
 40
1.0
176
     0
  0
VISUALSTYLE
  5
38
102
{ACAD_REACTORS
330
29
102
}
330
29
100
AcDbVisualStyle
  2
Facepattern
 70
    15
177
     3
291
     1
 70
    58
 90
        2
176
     1
 90
        2
176
     1
 90
        0
176
     1
 90
        0
176
     1
 40
0.6
176
     1
 40
30.0
176
     1
 62
     7
420
 16777215
176
     1
 90
        1
176
     1
 90
        4
176
     1
 62
     7
176
     1
 62
   257
176
     1
 90
        1
176
     1
 90
        1
176
     1
 40
1.0
176
     1
 90
        8
176
     1
 62
     7
176
     1
 40
1.0
176
     1
 90
        1
176
     1
 90
        6
176
     1
 90
        2
176
     1
 62
     7
176
     1
 90
        5
176
     1
 90
        0
176
     1
 90
        0
176
     1
290
     0
176
     1
 90
        1
176
     1
 40
0.0
176
     1
 90
        0
176
     1
290
     0
176
     1
290
     1
176
     1
290
     1
176
     1
290
     0
176
     1
290
     0
176
     1
290
     0
176
     1
290
     0
176
     1
290
     0
176
     1
290
     0
176
     1
 90
       50
176
     1
 40
0.0
176
     1
 40
1.0
176
     1
 90
        0
176
     1
 62
    18
176
     1
 90
       50
176
     1
 90
        3
176
     1
 62
     5
420
      255
176
     1
290
     0
176
     1
 90
       50
176
     1
 90
       50
176
     1
 90
       50
176
     1
290
     0
176
     1
 90
       50
176
     1
 62
   256
176
     0
 40
1.0
176
     0
 90
        2
176
     1
  1
strokes_ogs.tif
176
     1
290
     0
176
     1
 40
1.0
176
     1
 40
1.0
176
     1
  0
VISUALSTYLE
  5
2A
102
{ACAD_REACTORS
330
29
102
}
330
29
100
AcDbVisualStyle
  2
Flat
 70
     0
177
     3
291
     1
 70
    58
 90
        2
176
     1
 90
        1
176
     1
 90
        1
176
     1
 90
        2
176
     1
 40
0.6
176
     1
 40
30.0
176
     1
 62
     7
420
 16777215
176
     1
 90
        0
176
     1
 90
        0
176
     1
 62
     7
176
     1
 62
   257
176
     1
 90
        1
176
     1
 90
        1
176
     1
 40
1.0
176
     1
 90
        8
176
     1
 62
     7
176
     1
 40
1.0
176
     1
 90
        1
176
     1
 90
        6
176
     1
 90
        2
176
     1
 62
     7
176
     1
 90
        5
176
     1
 90
        0
176
     1
 90
        0
176
     1
290
     0
176
     1
 90
       13
176
     1
 40
0.0
176
     1
 90
        0
176
     1
290
     0
176
     1
290
     1
176
     1
290
     1
176
     1
290
     0
176
     1
290
     0
176
     1
290
     0
176
     1
290
     0
176
     1
290
     0
176
     1
290
     0
176
     1
 90
       50
176
     1
 40
0.0
176
     1
 40
1.0
176
     1
 90
        0
176
     1
 62
    18
176
     1
 90
       50
176
     1
 90
        3
176
     1
 62
     5
420
      255
176
     1
290
     0
176
     1
 90
       50
176
     1
 90
       50
176
     1
 90
       50
176
     1
290
     0
176
     1
 90
       50
176
     1
 62
   256
176
     0
 40
1.0
176
     0
 90
        2
176
     1
  1
strokes_ogs.tif
176
     1
290
     0
176
     1
 40
1.0
176
     1
 40
1.0
176
     1
  0
VISUALSTYLE
  5
2B
102
{ACAD_REACTORS
330
29
102
}
330
29
100
AcDbVisualStyle
  2
FlatWithEdges
 70
     1
177
     3
291
     1
 70
    58
 90
        2
176
     1
 90
        1
176
     1
 90
        1
176
     1
 90
        2
176
     1
 40
0.6
176
     1
 40
30.0
176
     1
 62
     7
420
 16777215
176
     1
 90
        1
176
     1
 90
        0
176
     1
 62
     7
176
     1
 62
   257
176
     1
 90
        1
176
     1
 90
        1
176
     1
 40
1.0
176
     1
 90
        0
176
     1
 62
   257
176
     1
 40
1.0
176
     1
 90
        1
176
     1
 90
        6
176
     1
 90
        2
176
     1
 62
     7
176
     1
 90
        5
176
     1
 90
        0
176
     1
 90
        0
176
     1
290
     0
176
     1
 90
       13
176
     1
 40
0.0
176
     1
 90
        0
176
     1
290
     0
176
     1
290
     1
176
     1
290
     1
176
     1
290
     0
176
     1
290
     0
176
     1
290
     0
176
     1
290
     0
176
     1
290
     0
176
     1
290
     0
176
     1
 90
       50
176
     1
 40
0.0
176
     1
 40
1.0
176
     1
 90
        0
176
     1
 62
    18
176
     1
 90
       50
176
     1
 90
        3
176
     1
 62
     5
420
      255
176
     1
290
     0
176
     1
 90
       50
176
     1
 90
       50
176
     1
 90
       50
176
     1
290
     0
176
     1
 90
       50
176
     1
 62
   256
176
     0
 40
1.0
176
     0
 90
        2
176
     1
  1
strokes_ogs.tif
176
     1
290
     0
176
     1
 40
1.0
176
     1
 40
1.0
176
     1
  0
VISUALSTYLE
  5
2C
102
{ACAD_REACTORS
330
29
102
}
330
29
100
AcDbVisualStyle
  2
Gouraud
 70
     2
177
     3
291
     1
 70
    58
 90
        2
176
     1
 90
        2
176
     1
 90
        1
176
     1
 90
        2
176
     1
 40
0.6
176
     1
 40
30.0
176
     1
 62
     7
420
 16777215
176
     1
 90
        0
176
     1
 90
        0
176
     1
 62
     7
176
     1
 62
   257
176
     1
 90
        1
176
     1
 90
        1
176
     1
 40
1.0
176
     1
 90
        0
176
     1
 62
     7
176
     1
 40
1.0
176
     1
 90
        1
176
     1
 90
        6
176
     1
 90
        2
176
     1
 62
     7
176
     1
 90
        5
176
     1
 90
        0
176
     1
 90
        0
176
     1
290
     0
176
     1
 90
       13
176
     1
 40
0.0
176
     1
 90
        0
176
     1
290
     0
176
     1
290
     1
176
     1
290
     1
176
     1
290
     0
176
     1
290
     0
176
     1
290
     0
176
     1
290
     0
176
     1
290
     0
176
     1
290
     0
176
     1
 90
       50
176
     1
 40
0.0
176
     1
 40
1.0
176
     1
 90
        0
176
     1
 62
    18
176
     1
 90
       50
176
     1
 90
        3
176
     1
 62
     5
420
      255
176
     1
290
     0
176
     1
 90
       50
176
     1
 90
       50
176
     1
 90
       50
176
     1
290
     0
176
     1
 90
       50
176
     1
 62
   256
176
     0
 40
1.0
176
     0
 90
        2
176
     1
  1
strokes_ogs.tif
176
     1
290
     0
176
     1
 40
1.0
176
     1
 40
1.0
176
     1
  0
VISUALSTYLE
  5
2D
102
{ACAD_REACTORS
330
29
102
}
330
29
100
AcDbVisualStyle
  2
GouraudWithEdges
 70
     3
177
     3
291
     1
 70
    58
 90
        2
176
     1
 90
        2
176
     1
 90
        1
176
     1
 90
        2
176
     1
 40
0.6
176
     1
 40
30.0
176
     1
 62
     7
420
 16777215
176
     1
 90
        1
176
     1
 90
        0
176
     1
 62
     7
176
     1
 62
   257
176
     1
 90
        1
176
     1
 90
        1
176
     1
 40
1.0
176
     1
 90
        0
176
     1
 62
   257
176
     1
 40
1.0
176
     1
 90
        1
176
     1
 90
        6
176
     1
 90
        2
176
     1
 62
     7
176
     1
 90
        5
176
     1
 90
        0
176
     1
 90
        0
176
     1
290
     0
176
     1
 90
       13
176
     1
 40
0.0
176
     1
 90
        0
176
     1
290
     0
176
     1
290
     1
176
     1
290
     1
176
     1
290
     0
176
     1
290
     0
176
     1
290
     0
176
     1
290
     0
176
     1
290
     0
176
     1
290
     0
176
     1
 90
       50
176
     1
 40
0.0
176
     1
 40
1.0
176
     1
 90
        0
176
     1
 62
    18
176
     1
 90
       50
176
     1
 90
        3
176
     1
 62
     5
420
      255
176
     1
290
     0
176
     1
 90
       50
176
     1
 90
       50
176
     1
 90
       50
176
     1
290
     0
176
     1
 90
       50
176
     1
 62
   256
176
     0
 40
1.0
176
     0
 90
        2
176
     1
  1
strokes_ogs.tif
176
     1
290
     0
176
     1
 40
1.0
176
     1
 40
1.0
176
     1
  0
VISUALSTYLE
  5
31
102
{ACAD_REACTORS
330
29
102
}
330
29
100
AcDbVisualStyle
  2
Hidden
 70
     6
177
     3
291
     0
 70
    58
 90
        1
176
     1
 90
        2
176
     1
 90
        2
176
     1
 90
        0
176
     1
 40
0.6
176
     1
 40
30.0
176
     1
 62
     7
420
 16777215
176
     1
 90
        2
176
     1
 90
        2
176
     1
 62
     7
176
     1
 62
   257
176
     1
 90
        2
176
     1
 90
        1
176
     1
 40
40.0
176
     1
 90
        0
176
     1
 62
   257
176
     1
 40
1.0
176
     1
 90
        1
176
     1
 90
        6
176
     1
 90
        2
176
     1
 62
     7
176
     1
 90
        3
176
     1
 90
        0
176
     1
 90
        0
176
     1
290
     0
176
     1
 90
        1
176
     1
 40
0.0
176
     1
 90
        0
176
     1
290
     0
176
     1
290
     1
176
     1
290
     1
176
     1
290
     0
176
     1
290
     0
176
     1
290
     0
176
     1
290
     0
176
     1
290
     0
176
     1
290
     0
176
     1
 90
       50
176
     1
 40
0.0
176
     1
 40
1.0
176
     1
 90
        0
176
     1
 62
    18
176
     1
 90
       50
176
     1
 90
        3
176
     1
 62
     5
420
      255
176
     1
290
     0
176
     1
 90
       50
176
     1
 90
       50
176
     1
 90
       50
176
     1
290
     0
176
     1
 90
       50
176
     1
 62
   256
176
     0
 40
1.0
176
     0
 90
        2
176
     1
  1
strokes_ogs.tif
176
     1
290
     0
176
     1
 40
1.0
176
     1
 40
1.0
176
     1
  0
VISUALSTYLE
  5
3F
102
{ACAD_REACTORS
330
29
102
}
330
29
100
AcDbVisualStyle
  2
JitterOff
 70
    20
177
     3
291
     1
 70
    58
 90
        2
176
     0
 90
        2
176
     0
 90
        0
176
     0
 90
        0
176
     0
 40
0.6
176
     0
 40
30.0
176
     0
 62
     7
420
 16777215
176
     0
 90
        1
176
     0
 90
        4
176
     0
 62
     7
176
     0
 62
   257
176
     0
 90
        1
176
     0
 90
        1
176
     0
 40
1.0
176
     0
 90
       10
176
     2
 62
     7
176
     0
 40
1.0
176
     0
 90
        1
176
     0
 90
        6
176
     0
 90
        2
176
     0
 62
     7
176
     0
 90
        5
176
     0
 90
        0
176
     0
 90
        0
176
     0
290
     0
176
     0
 90
        1
176
     0
 40
0.0
176
     0
 90
        0
176
     0
290
     0
176
     0
290
     1
176
     0
290
     1
176
     0
290
     0
176
     0
290
     0
176
     0
290
     0
176
     0
290
     0
176
     0
290
     0
176
     0
290
     0
176
     0
 90
       50
176
     0
 40
0.0
176
     0
 40
1.0
176
     0
 90
        0
176
     0
 62
    18
176
     0
 90
       50
176
     0
 90
        3
176
     0
 62
     5
420
      255
176
     0
290
     0
176
     0
 90
       50
176
     0
 90
       50
176
     0
 90
       50
176
     0
290
     0
176
     0
 90
       50
176
     0
 62
   256
176
     0
 40
1.0
176
     0
 90
        2
176
     0
  1
strokes_ogs.tif
176
     0
290
     0
176
     0
 40
1.0
176
     0
 40
1.0
176
     0
  0
VISUALSTYLE
  5
37
102
{ACAD_REACTORS
330
29
102
}
330
29
100
AcDbVisualStyle
  2
Linepattern
 70
    14
177
     3
291
     1
 70
    58
 90
        2
176
     1
 90
        2
176
     1
 90
        0
176
     1
 90
        0
176
     1
 40
0.6
176
     1
 40
30.0
176
     1
 62
     7
420
 16777215
176
     1
 90
        1
176
     1
 90
        4
176
     1
 62
     7
176
     1
 62
   257
176
     1
 90
        7
176
     1
 90
        7
176
     1
 40
1.0
176
     1
 90
        8
176
     1
 62
     7
176
     1
 40
1.0
176
     1
 90
        1
176
     1
 90
        6
176
     1
 90
        2
176
     1
 62
     7
176
     1
 90
        5
176
     1
 90
        0
176
     1
 90
        0
176
     1
290
     0
176
     1
 90
        1
176
     1
 40
0.0
176
     1
 90
        0
176
     1
290
     0
176
     1
290
     1
176
     1
290
     1
176
     1
290
     0
176
     1
290
     0
176
     1
290
     0
176
     1
290
     0
176
     1
290
     0
176
     1
290
     0
176
     1
 90
       50
176
     1
 40
0.0
176
     1
 40
1.0
176
     1
 90
        0
176
     1
 62
    18
176
     1
 90
       50
176
     1
 90
        3
176
     1
 62
     5
420
      255
176
     1
290
     0
176
     1
 90
       50
176
     1
 90
       50
176
     1
 90
       50
176
     1
290
     0
176
     1
 90
       50
176
     1
 62
   256
176
     0
 40
1.0
176
     0
 90
        2
176
     1
  1
strokes_ogs.tif
176
     1
290
     0
176
     1
 40
1.0
176
     1
 40
1.0
176
     1
  0
VISUALSTYLE
  5
40
102
{ACAD_REACTORS
330
29
102
}
330
29
100
AcDbVisualStyle
  2
OverhangOff
 70
    21
177
     3
291
     1
 70
    58
 90
        2
176
     0
 90
        2
176
     0
 90
        0
176
     0
 90
        0
176
     0
 40
0.6
176
     0
 40
30.0
176
     0
 62
     7
420
 16777215
176
     0
 90
        1
176
     0
 90
        4
176
     0
 62
     7
176
     0
 62
   257
176
     0
 90
        1
176
     0
 90
        1
176
     0
 40
1.0
176
     0
 90
        9
176
     2
 62
     7
176
     0
 40
1.0
176
     0
 90
        1
176
     0
 90
        6
176
     0
 90
        2
176
     0
 62
     7
176
     0
 90
        5
176
     0
 90
        0
176
     0
 90
        0
176
     0
290
     0
176
     0
 90
        1
176
     0
 40
0.0
176
     0
 90
        0
176
     0
290
     0
176
     0
290
     1
176
     0
290
     1
176
     0
290
     0
176
     0
290
     0
176
     0
290
     0
176
     0
290
     0
176
     0
290
     0
176
     0
290
     0
176
     0
 90
       50
176
     0
 40
0.0
176
     0
 40
1.0
176
     0
 90
        0
176
     0
 62
    18
176
     0
 90
       50
176
     0
 90
        3
176
     0
 62
     5
420
      255
176
     0
290
     0
176
     0
 90
       50
176
     0
 90
       50
176
     0
 90
       50
176
     0
290
     0
176
     0
 90
       50
176
     0
 62
   256
176
     0
 40
1.0
176
     0
 90
        2
176
     0
  1
strokes_ogs.tif
176
     0
290
     0
176
     0
 40
1.0
176
     0
 40
1.0
176
     0
  0
VISUALSTYLE
  5
33
102
{ACAD_REACTORS
330
29
102
}
330
29
100
AcDbVisualStyle
  2
Realistic
 70
     8
177
     3
291
     0
 70
    58
 90
        2
176
     1
 90
        3
176
     1
 90
        0
176
     1
 90
        2
176
     1
 40
0.6
176
     1
 40
30.0
176
     1
 62
     7
420
 16777215
176
     1
 90
        0
176
     1
 90
        0
176
     1
 62
     7
176
     1
 62
   257
176
     1
 90
        1
176
     1
 90
        1
176
     1
 40
1.0
176
     1
 90
        8
176
     1
 62
   257
176
     1
 40
1.0
176
     1
 90
        1
176
     1
 90
        6
176
     1
 90
        2
176
     1
 62
     7
176
     1
 90
        3
176
     1
 90
        0
176
     1
 90
        0
176
     1
290
     0
176
     1
 90
       13
176
     1
 40
0.0
176
     1
 90
        0
176
     1
290
     0
176
     1
290
     1
176
     1
290
     1
176
     1
290
     0
176
     1
290
     0
176
     1
290
     0
176
     1
290
     0
176
     1
290
     0
176
     1
290
     0
176
     1
 90
       50
176
     1
 40
0.0
176
     1
 40
1.0
176
     1
 90
        0
176
     1
 62
    18
176
     1
 90
       50
176
     1
 90
        3
176
     1
 62
     5
420
      255
176
     1
290
     0
176
     1
 90
       50
176
     1
 90
       50
176
     1
 90
       50
176
     1
290
     0
176
     1
 90
       50
176
     1
 62
   256
176
     0
 40
1.0
176
     0
 90
        2
176
     1
  1
strokes_ogs.tif
176
     1
290
     0
176
     1
 40
1.0
176
     1
 40
1.0
176
     1
  0
VISUALSTYLE
  5
3E
102
{ACAD_REACTORS
330
29
102
}
330
29
100
AcDbVisualStyle
  2
Shaded
 70
    27
177
     3
291
     0
 70
    58
 90
        2
176
     1
 90
        2
176
     1
 90
        1
176
     1
 90
        2
176
     1
 40
0.6
176
     1
 40
30.0
176
     1
 62
     7
420
 16777215
176
     1
 90
        0
176
     1
 90
        4
176
     1
 62
     7
176
     1
 62
   257
176
     1
 90
        1
176
     1
 90
        1
176
     1
 40
1.0
176
     1
 90
        8
176
     1
 62
   257
176
     1
 40
1.0
176
     1
 90
        1
176
     1
 90
        6
176
     1
 90
        2
176
     1
 62
     8
420
  7895160
176
     1
 90
        3
176
     1
 90
        0
176
     1
 90
        0
176
     1
290
     0
176
     1
 90
        5
176
     1
 40
0.0
176
     1
 90
        0
176
     1
290
     0
176
     1
290
     1
176
     1
290
     1
176
     1
290
     0
176
     1
290
     0
176
     1
290
     0
176
     1
290
     0
176
     1
290
     0
176
     1
290
     0
176
     1
 90
       50
176
     1
 40
0.0
176
     1
 40
1.0
176
     1
 90
        0
176
     1
 62
    18
176
     1
 90
       50
176
     1
 90
        3
176
     1
 62
     5
420
      255
176
     1
290
     0
176
     1
 90
       50
176
     1
 90
       50
176
     1
 90
       50
176
     1
290
     0
176
     1
 90
       50
176
     1
 62
   256
176
     0
 40
1.0
176
     0
 90
        2
176
     1
  1
strokes_ogs.tif
176
     1
290
     0
176
     1
 40
1.0
176
     1
 40
1.0
176
     1
  0
VISUALSTYLE
  5
3D
102
{ACAD_REACTORS
330
29
102
}
330
29
100
AcDbVisualStyle
  2
Shaded with edges
 70
    26
177
     3
291
     0
 70
    58
 90
        2
176
     1
 90
        2
176
     1
 90
        1
176
     1
 90
        2
176
     1
 40
0.6
176
     1
 40
30.0
176
     1
 62
     7
420
 16777215
176
     1
 90
        1
176
     1
 90
        2
176
     1
 62
     7
176
     1
 62
   257
176
     1
 90
        2
176
     1
 90
        1
176
     1
 40
1.0
176
     1
 90
        8
176
     1
 62
   257
176
     1
 40
1.0
176
     1
 90
        1
176
     1
 90
        6
176
     1
 90
        2
176
     1
 62
     7
176
     1
 90
        3
176
     1
 90
        0
176
     1
 90
        0
176
     1
290
     0
176
     1
 90
        5
176
     1
 40
0.0
176
     1
 90
        0
176
     1
290
     0
176
     1
290
     1
176
     1
290
     1
176
     1
290
     0
176
     1
290
     0
176
     1
290
     0
176
     1
290
     0
176
     1
290
     0
176
     1
290
     0
176
     1
 90
       50
176
     1
 40
0.0
176
     1
 40
1.0
176
     1
 90
        0
176
     1
 62
    18
176
     1
 90
       50
176
     1
 90
        3
176
     1
 62
     5
420
      255
176
     1
290
     0
176
     1
 90
       50
176
     1
 90
       50
176
     1
 90
       50
176
     1
290
     0
176
     1
 90
       50
176
     1
 62
   256
176
     0
 40
1.0
176
     0
 90
        2
176
     1
  1
strokes_ogs.tif
176
     1
290
     0
176
     1
 40
1.0
176
     1
 40
1.0
176
     1
  0
VISUALSTYLE
  5
3A
102
{ACAD_REACTORS
330
29
102
}
330
29
100
AcDbVisualStyle
  2
Shades of Gray
 70
    23
177
     3
291
     0
 70
    58
 90
        2
176
     1
 90
        2
176
     1
 90
        3
176
     1
 90
        0
176
     1
 40
0.6
176
     1
 40
30.0
176
     1
 62
     7
420
 16777215
176
     1
 90
        2
176
     1
 90
        2
176
     1
 62
     7
176
     1
 62
     7
176
     1
 90
        1
176
     1
 90
        1
176
     1
 40
40.0
176
     1
 90
        8
176
     1
 62
     7
176
     1
 40
1.0
176
     1
 90
        1
176
     1
 90
        6
176
     1
 90
        2
176
     1
 62
     7
176
     1
 90
        3
176
     1
 90
        0
176
     1
 90
        0
176
     1
290
     0
176
     1
 90
        1
176
     1
 40
0.0
176
     1
 90
        0
176
     1
290
     0
176
     1
290
     1
176
     1
290
     1
176
     1
290
     0
176
     1
290
     0
176
     1
290
     0
176
     1
290
     0
176
     1
290
     0
176
     1
290
     0
176
     1
 90
       50
176
     1
 40
0.0
176
     1
 40
1.0
176
     1
 90
        0
176
     1
 62
    18
176
     1
 90
       50
176
     1
 90
        3
176
     1
 62
     5
420
      255
176
     1
290
     0
176
     1
 90
       50
176
     1
 90
       50
176
     1
 90
       50
176
     1
290
     0
176
     1
 90
       50
176
     1
 62
   256
176
     0
 40
1.0
176
     0
 90
        2
176
     1
  1
strokes_ogs.tif
176
     1
290
     0
176
     1
 40
1.0
176
     1
 40
1.0
176
     1
  0
VISUALSTYLE
  5
3B
102
{ACAD_REACTORS
330
29
102
}
330
29
100
AcDbVisualStyle
  2
Sketchy
 70
    24
177
     3
291
     0
 70
    58
 90
        1
176
     1
 90
        2
176
     1
 90
        2
176
     1
 90
        0
176
     1
 40
0.6
176
     1
 40
30.0
176
     1
 62
     7
420
 16777215
176
     1
 90
        2
176
     1
 90
        2
176
     1
 62
     7
176
     1
 62
     7
176
     1
 90
        1
176
     1
 90
        1
176
     1
 40
40.0
176
     1
 90
       11
176
     1
 62
     7
176
     1
 40
1.0
176
     1
 90
        1
176
     1
 90
        6
176
     1
 90
        2
176
     1
 62
     7
176
     1
 90
        6
176
     1
 90
        0
176
     1
 90
        0
176
     1
290
     0
176
     1
 90
        1
176
     1
 40
0.0
176
     1
 90
        0
176
     1
290
     0
176
     1
290
     1
176
     1
290
     1
176
     1
290
     0
176
     1
290
     0
176
     1
290
     0
176
     1
290
     0
176
     1
290
     0
176
     1
290
     0
176
     1
 90
       50
176
     1
 40
0.0
176
     1
 40
1.0
176
     1
 90
        0
176
     1
 62
    18
176
     1
 90
       50
176
     1
 90
        3
176
     1
 62
     5
420
      255
176
     1
290
     0
176
     1
 90
       50
176
     1
 90
       50
176
     1
 90
       50
176
     1
290
     0
176
     1
 90
       50
176
     1
 62
   256
176
     0
 40
1.0
176
     0
 90
        2
176
     1
  1
strokes_ogs.tif
176
     1
290
     0
176
     1
 40
1.0
176
     1
 40
1.0
176
     1
  0
VISUALSTYLE
  5
36
102
{ACAD_REACTORS
330
29
102
}
330
29
100
AcDbVisualStyle
  2
Thicken
 70
    13
177
     3
291
     1
 70
    58
 90
        2
176
     1
 90
        2
176
     1
 90
        0
176
     1
 90
        0
176
     1
 40
0.6
176
     1
 40
30.0
176
     1
 62
     7
420
 16777215
176
     1
 90
        1
176
     1
 90
        4
176
     1
 62
     7
176
     1
 62
   257
176
     1
 90
        1
176
     1
 90
        1
176
     1
 40
1.0
176
     1
 90
       12
176
     1
 62
     7
176
     1
 40
1.0
176
     1
 90
        1
176
     1
 90
        6
176
     1
 90
        2
176
     1
 62
     7
176
     1
 90
        5
176
     1
 90
        0
176
     1
 90
        0
176
     1
290
     0
176
     1
 90
        1
176
     1
 40
0.0
176
     1
 90
        0
176
     1
290
     0
176
     1
290
     1
176
     1
290
     1
176
     1
290
     0
176
     1
290
     0
176
     1
290
     0
176
     1
290
     0
176
     1
290
     0
176
     1
290
     0
176
     1
 90
       50
176
     1
 40
0.0
176
     1
 40
1.0
176
     1
 90
        0
176
     1
 62
    18
176
     1
 90
       50
176
     1
 90
        3
176
     1
 62
     5
420
      255
176
     1
290
     0
176
     1
 90
       50
176
     1
 90
       50
176
     1
 90
       50
176
     1
290
     0
176
     1
 90
       50
176
     1
 62
   256
176
     0
 40
1.0
176
     0
 90
        2
176
     1
  1
strokes_ogs.tif
176
     1
290
     0
176
     1
 40
1.0
176
     1
 40
1.0
176
     1
  0
VISUALSTYLE
  5
30
102
{ACAD_REACTORS
330
29
102
}
330
29
100
AcDbVisualStyle
  2
Wireframe
 70
     5
177
     3
291
     0
 70
    58
 90
        0
176
     1
 90
        2
176
     1
 90
        0
176
     1
 90
        0
176
     1
 40
0.6
176
     1
 40
30.0
176
     1
 62
     7
420
 16777215
176
     1
 90
        1
176
     1
 90
        4
176
     1
 62
     7
176
     1
 62
   257
176
     1
 90
        1
176
     1
 90
        1
176
     1
 40
1.0
176
     1
 90
        0
176
     1
 62
   257
176
     1
 40
1.0
176
     1
 90
        1
176
     1
 90
        6
176
     1
 90
        2
176
     1
 62
     7
176
     1
 90
        3
176
     1
 90
        0
176
     1
 90
        0
176
     1
290
     0
176
     1
 90
        1
176
     1
 40
0.0
176
     1
 90
        0
176
     1
290
     0
176
     1
290
     1
176
     1
290
     1
176
     1
290
     0
176
     1
290
     0
176
     1
290
     0
176
     1
290
     0
176
     1
290
     0
176
     1
290
     0
176
     1
 90
       50
176
     1
 40
0.0
176
     1
 40
1.0
176
     1
 90
        0
176
     1
 62
    18
176
     1
 90
       50
176
     1
 90
        3
176
     1
 62
     5
420
      255
176
     1
290
     0
176
     1
 90
       50
176
     1
 90
       50
176
     1
 90
       50
176
     1
290
     0
176
     1
 90
       50
176
     1
 62
   256
176
     0
 40
1.0
176
     0
 90
        2
176
     1
  1
strokes_ogs.tif
176
     1
290
     0
176
     1
 40
1.0
176
     1
 40
1.0
176
     1
  0
VISUALSTYLE
  5
3C
102
{ACAD_REACTORS
330
29
102
}
330
29
100
AcDbVisualStyle
  2
X-Ray
 70
    25
177
     3
291
     0
 70
    58
 90
        2
176
     1
 90
        2
176
     1
 90
        1
176
     1
 90
        1
176
     1
 40
0.5
176
     1
 40
30.0
176
     1
 62
     7
420
 16777215
176
     1
 90
        1
176
     1
 90
        0
176
     1
 62
     7
176
     1
 62
   257
176
     1
 90
        1
176
     1
 90
        1
176
     1
 40
1.0
176
     1
 90
        8
176
     1
 62
     7
176
     1
 40
1.0
176
     1
 90
        1
176
     1
 90
        6
176
     1
 90
        2
176
     1
 62
     7
176
     1
 90
        3
176
     1
 90
        0
176
     1
 90
        0
176
     1
290
     0
176
     1
 90
       13
176
     1
 40
0.0
176
     1
 90
        0
176
     1
290
     0
176
     1
290
     1
176
     1
290
     1
176
     1
290
     0
176
     1
290
     0
176
     1
290
     0
176
     1
290
     0
176
     1
290
     0
176
     1
290
     0
176
     1
 90
       50
176
     1
 40
0.0
176
     1
 40
1.0
176
     1
 90
        0
176
     1
 62
    18
176
     1
 90
       50
176
     1
 90
        3
176
     1
 62
     5
420
      255
176
     1
290
     0
176
     1
 90
       50
176
     1
 90
       50
176
     1
 90
       50
176
     1
290
     0
176
     1
 90
       50
176
     1
 62
   256
176
     0
 40
1.0
176
     0
 90
        2
176
     1
  1
strokes_ogs.tif
176
     1
290
     0
176
     1
 40
1.0
176
     1
 40
1.0
176
     1
  0
DICTIONARYVAR
  5
49C
102
{ACAD_REACTORS
330
497
102
}
330
497
100
DictionaryVariables
280
     0
  1
1:1
  0
DICTIONARYVAR
  5
499
102
{ACAD_REACTORS
330
497
102
}
330
497
100
DictionaryVariables
280
     0
  1
STANDARD
  0
DICTIONARYVAR
  5
498
102
{ACAD_REACTORS
330
497
102
}
330
497
100
DictionaryVariables
280
     0
  1
STANDARD
  0
DICTIONARYVAR
  5
49A
102
{ACAD_REACTORS
330
497
102
}
330
497
100
DictionaryVariables
280
     0
  1
Imperial24
  0
DICTIONARYVAR
  5
49B
102
{ACAD_REACTORS
330
497
102
}
330
497
100
DictionaryVariables
280
     0
  1
Imperial24
  0
DICTIONARY
  5
4A1
330
6B
100
AcDbDictionary
280
     1
281
     1
  3
ACAD_XREC_ROUNDTRIP
360
507
  0
DICTIONARY
  5
526
330
4FC
100
AcDbDictionary
280
     1
281
     1
  3
ACAD_XREC_ROUNDTRIP
360
527
  0
DICTIONARY
  5
1A
330
19
100
AcDbDictionary
280
     1
281
     1
  3
BUMPTILE
360
1C
  3
DIFFUSETILE
360
1B
  3
OPACITYTILE
360
1F
  3
REFLECTIONTILE
360
1E
  3
REFRACTIONTILE
360
20
  3
SPECULARTILE
360
1D
  0
DICTIONARY
  5
12
330
11
100
AcDbDictionary
280
     1
281
     1
  3
BUMPTILE
360
14
  3
DIFFUSETILE
360
13
  3
FBXASSET
360
E6
  3
OPACITYTILE
360
17
  3
REFLECTIONTILE
360
16
  3
REFRACTIONTILE
360
18
  3
SPECULARTILE
360
15
  0
DICTIONARY
  5
22
330
21
100
AcDbDictionary
280
     1
281
     1
  3
BUMPTILE
360
24
  3
DIFFUSETILE
360
23
  3
OPACITYTILE
360
27
  3
REFLECTIONTILE
360
26
  3
REFRACTIONTILE
360
28
  3
SPECULARTILE
360
25
  0
DICTIONARY
  5
49F
330
69
100
AcDbDictionary
280
     1
281
     1
  3
ACAD_XREC_ROUNDTRIP
360
506
  0
DICTIONARY
  5
524
330
4FB
100
AcDbDictionary
280
     1
281
     1
  3
ACAD_XREC_ROUNDTRIP
360
525
  0
DICTIONARY
  5
49D
330
65
100
AcDbDictionary
280
     1
281
     1
  3
ACAD_ROUNDTRIP_2008_TABLESTYLE_CELLSTYLEMAP
360
505
  0
XRECORD
  5
507
102
{ACAD_REACTORS
330
4A1
102
}
330
4A1
100
AcDbXrecord
280
     1
102
DISPLAYNAME
  1
Imperial24
102
FLAGS
 90
        0
  0
XRECORD
  5
527
102
{ACAD_REACTORS
330
526
102
}
330
526
100
AcDbXrecord
280
     1
102
DISPLAYNAME
  1
Metric50
102
FLAGS
 90
        0
  0
XRECORD
  5
1C
102
{ACAD_REACTORS
330
1A
102
}
330
1A
100
AcDbXrecord
280
     1
270
     1
271
     1
  0
XRECORD
  5
1B
102
{ACAD_REACTORS
330
1A
102
}
330
1A
100
AcDbXrecord
280
     1
270
     1
271
     1
  0
XRECORD
  5
1F
102
{ACAD_REACTORS
330
1A
102
}
330
1A
100
AcDbXrecord
280
     1
270
     1
271
     1
  0
XRECORD
  5
1E
102
{ACAD_REACTORS
330
1A
102
}
330
1A
100
AcDbXrecord
280
     1
270
     1
271
     1
  0
XRECORD
  5
20
102
{ACAD_REACTORS
330
1A
102
}
330
1A
100
AcDbXrecord
280
     1
270
     1
271
     1
  0
XRECORD
  5
1D
102
{ACAD_REACTORS
330
1A
102
}
330
1A
100
AcDbXrecord
280
     1
270
     1
271
     1
  0
XRECORD
  5
14
102
{ACAD_REACTORS
330
12
102
}
330
12
100
AcDbXrecord
280
     1
270
     1
271
     1
  0
XRECORD
  5
13
102
{ACAD_REACTORS
330
12
102
}
330
12
100
AcDbXrecord
280
     1
270
     1
271
     1
  0
XRECORD
  5
E6
102
{ACAD_REACTORS
330
12
102
}
330
12
100
AcDbXrecord
280
     1
 70
     1
 90
1959938040
 71
     1
  1
F0025B55-FF2A-48E9-ACB8-D453A3ED10FD
311
504B0304140006080800C45E5A4CA07EF27AF8000000A80100004F00000043373631353546442D383737332D344430332D423434352D3339313739443544453030312F4173736574446174612F446566696E6974696F6E4974657261746F7250726F706572746965732E62696EBD90C14EC4201086D18BF1E0C183770F5E11
311
2860C1C498528A17BDEC3E80C18ABB4D687753DA98BDEDD1B7D621D65770927F980CCCFC5FF842087D2F01253A011D215FC0F914863076EDBADD86DEA333E898C3B33F84F1064AAB555133E7B0665662A18CC655E31416960A2AB4A9655D9EC2BB3C66C3879FE39477BE74A90D31FA21ECE674098DC5E4BAF71398F9789B87
311
CE51CE4710427F17296FDAFC2265CA4F907FDFDF3FFA94C2F440EAF28E49E92C5665C93306C7460889B966A5B6D2369432B20A69378F6D48C4515A48232576AEA880BF01FEDA286C85E4156F2CA3CE92699BBFE60A9CE6FE6DF05D24942C08AFFB6103FDFF8A1F504B0304140006080800C45E5A4C4AF6E9D1EC0000003002
311
00004500000043373631353546442D383737332D344430332D423434352D3339313739443544453030312F4173736574446174612F496E7374616E636550726F706572746965732E62696EEB606060F80F0540260323103700495E20ED9E9A975A94991C9C9C919A9BA802147033303032753235D575733372D435B170B5D4
311
757476B2D0753131357634767531347073614768046931363471713532B5D435353131D635313332D475727372D13534373670367376B67474B5042A03DBCBA019D37FE8ABC6157B20CD04146B0062181F4C03F940F0C11EA29A8141C08141002C0426541C106CAC2CA046088033B02A030AC2157C6006F21A8018AAF50194
311
E6010A610250382264E08660284CD9E98021862280A91564B406929A0FF62C401E28B6F88038B83CB1243943D7A928312F25350524432B0000504B0304140006080800C45E5A4C88E57597CD3F0000904100006B00000043373631353546442D383737332D344430332D423434352D3339313739443544453030312F526573
311
6F75726365732F46303032354235352D464632412D343845392D414342382D4434353341334544313046442F7468756D626E61696C2F302F67656E657269635F706E67355B773CD4FF1FBF73E71C0E67EF7576C9DEF3EC995D46C6A1EC5046649CBDF79E192942562825CE965D8A868C2842C8DE9FDFD1F7E7F138F7078FCF
311
6B3F5FCFD7EBFDFEC41B196891913091804020321D6D7513FC77D8C5070EC3FFEE51B21F068154CC75D455CC028A3EA68992803810109FDDE5D5CEC5521B28A1B422BF80741695D5B529DA1C2D058AD2388BDA9F476F7C2CADC939304173DBF48A452BF8A700C0C70C3D121C1AA15A5270C22E2B9E28763651F7DA0D12CE11
311
077B2ECD0D560B5E3DE2368B1E65C5E1C87384A4CC5F2D9FB8BE39E9B77C753783A37998F5CEF1B4FEE553463245C9712270880DF339E0B882A6BA713D865F6F384C842D440934EF264F4A304F8DE4EEFA1E2BF5E2D91F5ADD9613D6E31DDB33ED31DB1D7916CAF091286EA3D31B9CFECB78BB0060245B943C4C040119FF78
311
0A74DD308BA9D028678674EB5504ECF284EE814DAED07440BAF649BE4B55DA2890F4D73E2D489A59EE54FDB0A85B59F2F52C4858A02705C4815A792B0C4A996A2023ECB195073E115E3E3647F64243A8338F2000BCB58DA5692C7E7C3D413F963FEDF3CF00FBB0F831A9D51360FECA43819F527B89FA260EB63C5DA676830A
311
A3626A3693B23F1A17A0DFFCE3EE164E31B5365EDF0C89EF64D8E38AB0BA9A1117D7C3A0EC44F44F4023095E80BA610DE336D0F99593A88BFC5306E72DF98F7FD132ED95878DF2964EA7E43071359FD83B2BDF9C6B5BDF768F0F3C0FC351199526F53D9460A34511F75D1B63E488178569472C91A94497807A3FD4A390C655
311
8F26D416365C3656DE6E769DA9D8FC73774E1709812842DD8EF96AED1960F79D21B395CDDFE6F92CB4EB962A4668C76990E2EF29798C8941D67DA50F4A5F947872460F1F6FDB794E8A29FD7AC0C0D6E0714339CE258FB17AE8535221E3464A10F29A0BE5EEECEFC5675926A89F49EB14E5711894F6586DB5754EB4D5DA9C64
311
37EBA57DB97A24F8B8A8DB295FFD73266CF57E82694DF5166DDF93573AFE9C9C5EB05F8FEF8E89E0A8917B0B3724DB7BEBB53252581EFC3E38166BA131A3A5B42FE2AD00A769BBFA4458D2DE7822F8C4F63D0B8E21B285AE13325F3410A435C648C9D91FDEB109E73CEDA7BC796961AF79175E1A3CE4C5E8B0D009B0C9E29E
311
FD98BC8E97554E3D8D838424E270F7685226E5AC268E021EDE3522D583E8F20C0BDE2959EF5BBFEEDAB32FE9A3ED0E39F211A86AA9DEBFC68182EDED132AB8BB794442D2D7EA9F4D8BFF52BC4D55BB165124EE90A42D101E67BBBB292FFB4F66DE5BF2300E44546757DA7CEF8932BFC9F92A0707953491A55C5A5ACEDABD9F
311
A1AEA01BAC3DC5A24E22E7C47213493996EFBC369D086ED9397C9BA6C7F9855C7BD5E15BFC8C53DB3D2A4C5901A57ACD2FBDF4D1676E95338B2C2BCE65FDA4C64F5FEFDC7D9CA5AA1FCF11E193F2FDABF0F4916BF13FB916A224380E6462A9815F2300DC49CC4DF8D055CEF76462F4B7A7ACA7365C2707891370BC1D0AA620
311
3C44CCAB47084FEC057F27FFCD57F89B8B9852459798A675C66BD7CE572CAF71FF7E6D7ECF7BF62CAB7B3F1107DCD04DC55A3F9961700286141C94A4F771FEB2BCDA2DDEE0CB0BAE402FF1DB0100F8E475DFFFC074DDB4498AB7D186A7654DDB1CB680D703D47CEB4E72F8CB13D86A4AA68116E26387B93FD6738779B34FED
311
B8E517EDF2BAF28D9BE93A1D3A164320E07D42E514725C29515FF361754213EDE06B079A2E99EB1CA82A02019EADEEB87B9AF005BD04BBCECB14AACD6B24EFBE482194A97DD32400685FF1FEF1544D1B14EFB1E7F08E6D2CD2AF52DE757F35F5E62332EE88EA26417AD5C3E0E319D68F25414E6D672BD4522B278C57D18F01
311
13921C71D96527E091F00CEB15AE23D24667369BD3CEFA10C7549D930890BA4366F4EBC55F01F746109F98ABCDD5A3EE06619C6AD78AB33E48E4C9BD21BF7478B385EC05C4F8987E2C1BFA0A60EBEDAA0AE0B015C2720ECE180FB6F2DEFBEB822D96338C9B63822183BBF52FB664A7AE57003AABCE512BF77E7E31BDA2E739
311
AC4C131657DDFE5225E900FB56CC01CDE808FA4A9C9DA16AC679656BB64796283D89812B8F91136AE18EE5EBBAF47A73BE3C153EB5D4CD491B4BFB4FE690A4CF9ABA08C0D8AA64220C438C96EA6CA80B58FE5761E697B3A292EB9FBDA502FA863E49FE694ADDFFF9D62C520BDD1A22014147A0903A05B9B729F54272EF8393
311
1FEEC057BFF8C8055C279EAC5C0011804828734024F6CFA319C9CC6867C727184465CD9BB7ED386AFFD96B294A85E3802FAE47244602D8273615952B98C4F23F7EAE4463D9D638EEE374A20959E0FE519C4CFB0FBFE5DD80C2AA3F9DB961D1BDE57E67C9BB47B77FDD74EE3094F5DBBE3EBC1FBDB7393F5116263009E2EFE1
311
AF9A221B2AE234C902BF70E9F280ED23E73908361565964333A3F01D0B006AF32FB21AA1316744B489D5A198E85299241735BE559675130955C902A8ED761FC0DBE337A9F91919AF5CE32AF902ADF9AB2615E00E8A94586BA1A90839B61832FF1BFB76D2EFADE6DB1BA04CCAD3DA649E7E2A0219F592E22F2AD54847EEA8E4
311
2271011E9074F8F3DD9FBA6CDF88FFC9FC7E811AD1CA8F4557CE4AFC7BBEDCF0114A48689F20A584520C74DA8127124B767E2FB91A6B186246727BE63C9445BAE02088D58B8EFDC0F1072407CD9B89A13F6303B4A928F593AD489B58E6869325790ADC406036C591729FE14021F94B7796BB11848D463536A092A26F077F94
311
639F7CEEE2A724C66EC885F4A24F8B8A0AC321F8FD149BA529460FAA34E4663C02D41FDF80BCA222D42F0ABFF8490F4FA74C673807C2051D8E467B47B616072860069A9A303ABA9B319D58404461401B0A0F9BE5E1E151C14BC33B32ABE03DDE91708DFAEB15E7C0D593C86BB7D7EC17BE56E57975F077BFD5525F3A1A361D
311
584A75E08CF29FC7B44B2B3085014F3A5A14517377C3F6B8F37E59514C3B12F8AACDEDDA4DFC49BE5710101534CD6FB6DE15B50F11A09472AABA727F0C49D9CB906B158030065F48EB3625E010CEC1D511D0053474B11E6A4F01C0D6EF1BED3A944FDEC70E0DDCDC756C86545910E0DAE3BE3AA9A404574C2995CD5CAF9549
311
226BC94B4F4F0F5F9086F418F6B32346464610D8BC7391D3C3A3CCF04CFC1FB2A3A3170E369511868F14EEA4E5E438CC73DB1F3248AA94B6B2FF33B222FF3D1E7BF146CAD229770158063BCE4F5391964DF62F7E52A7BE0EEA829C9E13C4C147D6F93FE59E111DAB5E4594D6F3CD1AD375EE039930EFE5AF2BB2D41C83C7DA
311
BD8C659BAFBE8FAB392CA634F3D15C1D945DB4588D2B0824A4EC928AAC565557CA2F0DAA588CA5BE30B3A8004F7BF005E96CBF891D7F18112A3619FDF530DC8AA64954258E1811789B5189B49B4EB53F5F89F7D37523894F3EB57B373763C91E502F52CC99EB7BDDF933FC324C4FFC2561DFFA7339FAFDD0A4BFBE6D3A8FF9
311
ED1FC49898139864602458968913181918F719CCF5A68B2EE9C1FF050E34E63107003B8120FA982C21B30A874E4F5E4B38D5A8290C4B8D9BE48A0BE31EA995BDC37AC6DE90BA17D259DEF53605D55922FEB1855D915B659FBEB350EE0DFB2F9F766E1C84CC8964B75D08667445EAB966015F63A18A9E0A325C1B3DC628C0D3
311
CB60F767FA93CC65F25458BD23C3B312716E5F40E5858AC06EBA9AB14F95DB99147B832069201541D09A0D856E12C629CF32683760EE855537D1901988D5EBC156676C7DD51D7207CF3267AF1D76C2AD867315E44618015313A98B19941C696FED3461CAA9B5415F918556D7802EDACEFD6B2E45853A9735DFC9DBF7E440F9
311
319F8B6805A973BCCDC76C069A9144E51F187EDCC12FC31B5DEAAF0A76137199B106EC84ADA6B6EE697D4E6A96E007417F4E880E8B1E89B4BCE9D81EF611E2ED8F0C1A6C25F620FAFAAB656A7C42D464880E8AFAB0E0FC8EA38CA9A8AEEAEE3E4648BA4680270A89743CDD3E6C6CBF34B7B640EFA285ABC7EA0A1E28F3CC96
311
3D114A80123EE66D0AF7D5380EB41909B605AB4765B709B808590458157E69BA1378FEC4B48CAF6A730E3BE3C5EF2DD1A5EAF94B1DDE50CEB55DDFD7EE9A16747FA4B223359FB1FCC69E1194892BABB93A1D5C4E807AC0EA2E30180811E77A2291F6E7F7FAA5E0F60215BC6024E48DE436C511F0628B8CA189982D4D83CCA1
311
7D305A7E923C37941CFDFDCD93ACAF735EF5F0E61BBD3E6C41A59B242790D3A3BAC7064DCD89AA2E37214EC839820949D5CAA31E240D2948E48F690298974A96BA9A8432BC90F5071D6537C9666EA4564796B7AFFFA548077BEEA75F63083435074BA182F3699557397F71548383FDA8CA34D99B981E72835ECDA5DDDC1513
311
15173D05A21F651AAF8524E88209E2E7A737ED1045800CE3390050BCFB8BE588DF111617874C62575039CA588EEFDEFEFE319B739DE2EDC147092A262611E159650E787917885EF08F1F51B8F2D8A71D60B58B190FEF9541A1BE94BC19FEA50784DA1419FE4B0FB51B8D36B5FF8E1286FD8AF42B91E59A5F1CC4D60174E764
311
045FD8C57B18209B217F89A62252BD20BE0E63E12B8E8F029FE19E0E8D0870F58721A557082250D5424F7909369376E41666C0EE77CD87CB283F661D5FB6D0DA023CB67320A20DC7BE661E9E1BFE5463085C557DA1FF9BE835733766C3D139F2CF9E2208873AD0EB4814DE9E6BF2CAF81614D4D43906ED1C05A3265CABBFE1
311
92770FC2F64F940CB6B17B5F166F133C9AEEAD2641807C3E69515171DD74C4A85311513D6EC9530B3B601B6BA3EBFF3B5C3D2F7D69765141E345F75433953D013ADDF8F6AA7DC3F4A7563FE5C7D367937E2900D7EAD0F9FC9A4A1A9B5BDF1FEF08532660C01C5D6DE22199AA774383E306DAB87E301ABB7D213887F9869D49
311
42D0D71E94B27EDF216A318BD488D45DF84529EF575AF3C3938C0AAA0215B01994153E2054A0B894DA5C784980633AAD48576957CF4AEAEAFADC7C587368551C73DBE1E57C58AC713303A8BFC258BD04B51724459FF9E24C03A81E0E0679CEB9B348C0DC998FEB9C6D6EFA77D247CC8F92D3848599ED89A23218D0636465AD
311
1CEEB7DC140D7426F83491C4E8E8281C2FB35240918FFECE880CA2A42D70E8B20B34DF5221C7DB0CF90ECCB9C745B37A47E9B716FF7A97B7A252C1F3814DC7B1E1A7F72B8751D524EF7CAE45B0C73B3BE7D08ED39781B380DDFC9AA4A4749C9493DB5BAD07A6EA6C092FBD0E85DB004DF06B8C9D3089C5320187E4CE184615
311
8C7EA7DDAE8AD9AFFF21AA3A1026BB06A259845E8232DEE62811A4DA9CEAB3A4887320B76E2AE5615EAB7BDF738CBDD01F1E64064BC13D9EC53576751CA8CACD58B3CEB0E6CA585BD089B2A59B9FC101403387AADBDBE70586B93D64BF3AD4453EF9C3B6A93817E8346991798601344F79A83C51F3D50F7BF2683A3605F51A
311
72449489E0EE6169C749C60B1035651103AEE24D24E51A759C840DD3FC6504DA6FE107510E447B43461C79D22970B75DE5E1BD3007D1AFC619A4A4A69B5626AF5E9B8374E20677F77E2F8E73DF868E8BEC7EBA7B6A75EEF7205E1AB9486CB642741D6E03FF13FCCEDB1C4AC129886268B01CDF4B124AF797CF784F3C6DEC97
311
A17D4B558070A0F1C04DA4FF9BDBF34159AEFE958479824B3F58EBD1E19088A2AFDE501B6F2052368A3FD0E650A179EFAB1561E1D27527077136E652676C3670F42DCB3352F48F6BC86D2C3B0051727E41A0A4DC6CE2BE9D47F5CAA2935A3C0539AF080665997194ABECD723B08129CC5B6B21D2E7D54CD4D12610E7E9FB83
311
06771A89576C7A982002775ED44F3F744CF21EEBB27A631671D921938AAEE3EB0D19CD1E083727F607823E817BF599DCED5394E37EEBC2E88782E638920CA641EF74D4CDFCDEF06F4278ECB18E31E7E9876F2D783C8BF429C75395F57E98C2B495A3DA077EB3AC3C158608B6B57FE3EA48484D9A480096FCEE0DE880950E7E
311
5A5714131C5C41AAA29FD19AE81AC145FA1B9E85C7169A5AB837B213493DF7E9AA4B5FBF9CDEB36EBD21EF1181B7CF7366AB2A951D01E37AF4EB835D1BE8C117CFBE7625D2EBCDB0B20C5A4B45CED0BCDE3EE8DA9DA78C2E21DEAAFFD1197E463C33CC6A80FB785669B856EFF7A8CCCA2841B5A5369173320B1170C368B274
311
8D81062EA0296E5E2D95D7667A4A46D98A6FF475C76AAB0A8C8D45E226FAFC9FE0133EA9F60111F99CA81ACE03A1D14C89E8B0D69079C91464FA1D99E651D0EAF606F345C42A8A1AA9BA391031582B96D5B4176A77AADB01F12FD298A75DEEBB2C82F0B8650E880722F8DDD90C56A7A058E5FDEF1AC93545BA27367C76F5D8
311
F9690CB6F8DAE141EDD7971F0FB548A2AE435F224D6E5954CA155512F7332029D5A1230854B79F258EC5FFDB09F5F6343A8EB193229B7F7E79B3E48F8E183860B38C8269D1B53738FF1E0BACF6AADA6D4869E9DE708E79B5DADCC09B1BC76F649731CFAF59A83FD8BAE4C749D66FA87A3810D4D62FFE826FA400C0F325D2BC
311
0F3CA35F5847B82A2ACC7961745C823E4D863D54460AF792CE6F79B5C7A33B25C3AEA6CDE15A919B6367D781E9D44F61BF828672594A3E1D9EDD6DF179A81F27EAC05B936575D73E05C209DDD2115CFB705DF9BBF3C911589B3640735E9E618FC9C36A7326C82B2205E244C55D56FDB9D5DC93CE958D4BF8174D2B3DA54CB3
311
C09F2C2A6DFF73D23B2197355761AD421EC581284A7EF8DE2CE3497C0C804D49B41DFD6A7360844E5BEFFB495CFCDB97A4595911CDBA623274CE852B5E278AF0BEB1770E9D37CD977B2766A7DED0E94B840E1E95E8C77DE5CB6354AF7871427C28ADBEEF7BA0A28E19DE9ACD75F379FE373EAE6DDDAE3834692F9C2B03B4FC
311
A8FCA9ABE8EEEBEBB725B88A7C90941E850682CA04061A7DF0CE82ED49BFAFFD42C309818FAE14755CAAE78B0F73243ECCCAD7DF58FCB9CDFAE7A4D3E6671A613639130D056C8383C8F4FCF4808C331E544DD26E4755D09EA05253B3049A1E32587CC25D72E073E2CD96D04A71BBCB0038FEC3F53D254199C3CDC67CD66640
311
269431860225392B2CB3ECD0B4498AAE78BA1994246AE1EE78F2EDFB79F6C6CB6B5E279C4D373FBC21CB2698C9ACBBEB6A4BB6B39E16AB0E421CCBFC7654D81ED86022F9BB522146F9F4772E2D0E4FA70120C95A85A417BF5078B232F4754363EB1750B2AC2148EB46B1EA72AD9B4D23ADCBC589D70106C3EC2ABEEED84DFE
311
28E718C6C83502C28E9FDD3B09DA0A6F6F7B72B706A31C9E2A331EE70DA56A083D2177BFD63C55B11D8D949FAFCF90B23A1E24B9B5018B9A17E99F2890EC302F330FE7936E2C23F0D237EC8916F5166AB84B62A21BB0B950146962D754F92CC2C8877BED8FC7B7B25726DD19545392570B3A2C66B58F027BEF412E552D12A5
311
88C4A3CC5C3193FCB3485EFFF700D0B9EEC077754A33DC1FB9E25AF814628F91DDFECB667D3F7690803F38D13F8AE39353523BB08FC6760144AFA2CE28236F65EDBB3D5F59A57D612B99E3D7E5F8A851666BF9B5A6658EFC96EEB37A378ABB0EB3FDDF1303AF32C41BD1C8560745D7BD81066B0D6313359CF488563D3BA3F8
311
E2185D1FAA3EBA1397C9D0E3DD232180A4DCADB6AF25DB3AC3CC26589C8239E66E81547BC7E2F328F9884764CA37EB5DBE390DFC03A5246B456A7C3684C4377D0EEF9A350680FA9A077E8B2957B489E09AB1AD41316944C2254B5984830F691C93CAA767EECF976FA5647538830B5E63236A6F0365C1E0F3E327F24FE35EDD
311
BD7360B0F7374837409F7A6311BECC12B7026D4FA1AE204FA3F5FE904B1F420C7A9044AE58E403E7C4848E7DA25DC9EDAC79DD756FAA26B9EA83ACE8A214A2612A22AFA19DAE7DBAC5F8CDE1292A485F98DAC731A29FE01A3966E96BCB9FB5A4C8830E1B9AF0C54B87FBE221A097036E5D28D1F869F810C06A9BB0AC0612F6
311
9AEBAF893C6E7AD59460208BAB3A6B09CA4F6BDDAB8CF0D1F84B72487498395A70DCD754796E271099A567A55CF242BBED64696378BB6CF25EF0FCDB589F3A82F1116D010A9AB9FA4358809EE0C973A2B4229BAA876A70B03AB49CBA7FBE71DB1832FFD32F9BF2C8E98075CACAFB36921235D0F552B6A67E94E094097A5D7D
311
F681B40623DA535ADA7A9AD8E9A62407D7C9A5AE51D62A17A83A23728DE86BB56115804D3F2675F2C6B87541A0FC497BF0CA86420F558C9859EBE9FAD62747E323E3AADC03FDCDDFE7407B09DA90B44E3185723C5381EAEF589765E2F7A099BA46695BAD60CEF3491B8A171F5F56444F7CE9455312C3498C74173AEA0214EC
311
029833B34B650CBB5A5508D5091665309642791708ECF27CF11DB3D797D6CFE474453BD4BFADB768094B2147814D81C7CBAF8228DCAF5564B5891F5EF6A860EB2E323CB82AB868D8EA048880D63B0DE5341F1B3D53297B928A11E15F25E5148990F710747C3509ED14909C552EBE3973246FCE55D00564D8310BC3EBC5085D
311
08D806799B77D6C57FDF5E55837F9E934F09C03C729271B64F12D0A9F9E938107CAF7BF1EC8CF1BB9B42363D33070F4CACB425E605DDB0A34A12BB936DE286B9887A4E2E558F0886498BFF49C311D96C277CF6A9FC0D75AD0ECC5226D7E0E3572012E56D7FDE4410CEC7A6D0F997F225A2055B8B92E3956E875AE4993CB3D4
311
C9063AF98FD45E1BAB165640A43439A2C9181A7C355B297C0A0CCFFAE19B6FA3C2BA238A885FBC98B8F6DAF4B94B97304878DF4D8BFF6A4AEDF79E90ED4E68F00CD7299F4E0D83E35601AF0CBEF18C1E870E74758FA91F5131075004DB3CFCF09AE1DABC11957FD9808C92E8A678CE9DBE40DDA0E0D1D505AAFBCBA208232B
311
FB6FB3704E8985E61ADE53DE74152F5C7DE74B1DEDCD37DC3E8FB30D7EBA8B9EFFC3606BF90B8D438279CB7709FC7C00D327F41817EEA71CD9E49FE9C8C9A81C70915D9F0F15958EC5AA4C3BBFAF46986B90F188BDB24B89DE3C6F29EC3E6F66D84856EE96A35E657CA41B41EFD8DBFA16AD6E91439EA92B40B21C053249F5
311
1AE50EB0B24C770FFAF40DF12C8436366819C48E36547D4E7B72FE2BBF10828583057814A668BDF183F6B2E58DFB151103E56303E63D00F39C27C4661605DB644D19175D02E3F0241E8FC3458D17AAAADB117CE9EEA690D0DB01E634878C04C2C9310B69FCAB831151E3AD293BEF6E46B0ABCECB50F5939B39C613D41E81FA
311
E8D34CAE3C4566B761D37185FE864AC32FCB71AEF39DAA5BAB88609BB980CD2F07A8F941653B529567726E2B2A58D079DD57E1E5E31426CF184A04D7B03B985F276D47406AF276FE32E3328BA866EB1FD39BEF57863A317634AA5FE467409B3873F5069EF0D71AF00AD189D17BA1974ECDB2D623E9E14086386A6AAB580782
311
5C37B015BFE892AFD154920EC437EB945D958E18622E1E0FE2FA06557CE4BB9BBD05A2D40E774DA2B65473791E314B7D6C886820B2FCFE4AA272B3B8B15E7344A145E8AF919B5454D89D36D413E87211186BF6F645E5EC94DCCE8E1C799022E4EC9BC86D7A0F2AFB1FC4B2CE48F84B3F49ECE65BAD24CADCC07EFF39AB06BE
311
9E6B27A059938EA7208838455383DDBCFCD967DDE4650EF92A14FF933C975DB20BD7FEEBC4487576485963D757D16340D9599FEB362F775F38CA4185A86F74B629C81B133644A3B18FD056E997E0734F9BE26D11C0AAFC669E2AC9FC41D281F8B2E1C35AE27BCE05F3DA295488096688719D974DF1B5D182DB7792288697F8
311
763CFB43562C1CDEE11C4AABD5C22B6E33F6F389CFC3477C5919DC0D533F8A7A1846B7ADB60ABDC26C43D0CFC8910B7C15EE22675BD02702ED39DB77A87A192CA7A543E6205B979B9F5A6B512A3CA799E198B2D5797C0AF8D1D872CA455D4D431A7879D4DD76110B5FF7F4176B54477A9EB5E4A5D11214FDA585F0382751D8
311
E2582BA5D2075053298FEB8F1537304E32CB22C2E2B693DC0A760B1DFCA751BDC445AFDCBB12820ED85F6D5298933C7EF1211E9E057684056CDA3FEF3BB6052355E162DF27C59E965A8DDB7F9437EB72CDDA3A090DE65A5B2F50326247B7EC67B73ACC7047FC9B353D6EE990F772207C6EC52B39DC2F3C0754821DAB559F7C
311
1809C7D0DD5B0499D0442E0A6E391B3D5DB46D11E731E6794EC77523FBDAA242ED67F9FA1FB684255671F63C9BCFE6E7E896D51001A6113EF2298BA494E0B0980D1FA5B9D60796554C02256B1E0345FB7C6186B6A19D2DCA270416262845FA4F42DB5D9B0A0B6F07FCA2E56C242522E001E0CEB734AF310FC8BFB57E38E03A
311
ACE93B3326A2197891E68452B26A6307FDABFEE0223D3C03C3C73D2D5BC054C8311F12004CAE488E5C29287F8156A2CAA4AD0D7BE6B97264E4139F437CE73ADF52E5134C52B819777C18B323A5924E4F67AFD13B1CDC3A61793A79FAF5C0CEB718E441071E797C6DCCB9EFCF7E4A1E9F3DF3C2F9C9E8294E9586868788C972
311
857FB0556D7A26941A7EEB9B580AD78EC40B85DC906B4120A563CA3B87797ED612D3B035962BB75F6515A393F4CB057F564CDF54F2E5A024514E6A1F901DB80C7E70B1FC05E356A7E72FABF4775B3E3FB8F70A2A8E7B6A94542BB304157978CCC999E707A29CC795E67A59CC546A5D47B368954CA7B6E75EC9E1F6FC73CE3B
311
4F71F8CB1A6B15923D61EAAEB14626AAA9D04A26EB9C66CD1BE86CA31A5D8703DE04CD1EBCE4F5CCB62F93909AD11E55799A781A956ED27D3E738F4538CB04ADABC7DAEF20BC35BA6A90BCC1DC61BA05F20D8832FFB9BC9B15E2DB838A0AFBB7E0C82A562127E0446894F427794C3037186F622BF24DE1B00AA10A23BFA47B
311
2A180D6DA5AD6F7326FEB8C100C2D7142EB2A0B2A9D1008A09BA343D70E054AB69E2A7EDB783CBD92537FAF4A44D1296AC2792729104B3276C276C951D0CF3CF3F1E6B017720A7B8505A5FF9589365979678C36F1BAF759EAF57C60F1FF5FE9DCF5F8E764FF25A2D06CF25117A8FED51884C13B2B750DB0E4F5E3D64124FCF
311
11F0AD8F1CC3B3DA4B38ED22BF1CB2585EE6BFEBBA63FBFD44F9537B9B37BDD6B358720F98A8125AED4349CCFEB0E135F19E208A04CA7E2B10711185D72E381F448036EF57C9F874E54A971CA37A639E986AC0226DC5AA00D5B14FEA9192234B3DE617814FC221C92F33F1D392F297731B567FD98FD91D989379AF567A65B8
311
ADF177591DB90FBEA99BF4ED11B16E50A0AB1DBF1156D034BBE04D69D08F939D8E92BF525A1DDAFF80ECBC95D8F45D3FDD289FD23F7D8B452F8EBB34EC082DEEE68E18EDDF072060FAD2AB1504DD4879BF67099FC58F6E9DEFBF645D16334A3E9A127C6F1AF6132CF287E433B43A0EE93812B4AA0B194E03EE3FF91EF9C6ED
311
0074A2F6EB18A96A7C9890B1FCDA1F2095E944DB911ED54C60DF16FB74C8CE9BDC7C54C4F14078CF73C2FFF1F1BBCCD7CF64F71407EA1683DBC410D226627F66E509060D5C0AFD611DE681D509DB8DD12FB1265B03C6F5C55FF4C30BD94187FF692B4F152982502F193098A789526A038AB529A52BC0DC4FB6285CBAC10A8B
311
8DB75DCD9BDABBB221E27D1F8DA9F5EE5926A1C8AA9BA9BC09239C6A7F12914EA3B59EFF7AAEC3FFCCE56F1C5C2980AD072793527565E774F4631DB178CEEC691B1F367BEA0CF2907E1D6B854D527065979DDEF002D8B2ACEA7CE21AE297737EDE1D45B31233B73FEA35BCFDD0B09721FDBAF6432681F2FD10C3E9EFB246FD
311
6E854B344ACC9D8A0EEF876A7314B49B6A499FC650B099D650DBFEC7638ADFD245E2B7839DA5AC5F7D5623FC0ECEEC8653FC9B2BDD1AD4D00A566FBA7186DD3C9CD26512551637498CADB950FEC71ADB9A5524285DE328B8EC7EC75D2345AEC6A27C42AF6D9B92155315C80DBFCABBB7DA0FAE425C4FB896B15C9BFAC4FE67
311
DF5A23D30C93DA4D8F36FB15D100050DA6062E22AEC5F4DAC4F6FEEF97AE05DE63C6D38F9E068A20BC5E3B6BCD75320C5090924E7F93640A7735B1A43451C2D91EE62C6238B797349E59890AF3A520DF4A87095F3ABEC2E61F0593416CE46CDCBE0E00E2523FCCD04408588B5B6C9DB6459C786CE378770B54F51DA3A5E1DF
311
2A3349BEAAC234A6CF8993B598B3B25B4B113E353A4D750FA7534749430F3EBF2512E7EA3FD43C6AB9A1F765A58463B306721A15D224FAFE8C6F5E3432D57EE697DA0DD5A9D4866A8BCCAAA9DFF1F06047851408FEC060471D0E3EB86BFAF46E4B5E60311DC3E3CEA147C75CF971BE74689507154FF2D2E92F15CDB2B9182B
311
11459FD8ACAC5A85F174BC94A7F4EE4C4F5CAFA7C02E37BF0BC77B7DCD0C047BC316F562A01A441AFA7931CC84A28CB9F4AA367EB515778F29BFE61195FA671F4352E5E46E3A64773F1F76EE5EB36D7BCE9BCEAD837A4D77F8DB8C92AEEF6711920D7C7D0F76B0FD0EB7AB83724CD35BCA7D36DDDF5FBB7FF6F04A91F3E2BB
311
3B8F1A43CD659639507FF6331C5F697BCC782AE57D757A27D97F1AB9E0AEDB43F92F1B2AACDF5FEC8ADBAF9F814E2027003BA2F9E144B1938A7A04050AE5D953B82C45619165C813A10E76DD6906B3C16438064D14CDA713AEC420034613E1AC7241904A49FBF87409AFB1FCB9B72FE7933A87D8FBEDACECE4EDCF6A4FE9FB
311
94D5DEB74FAB7CFEAE17EE965DF980DCCA2D04134994F9A2E94D2265DA4FE6AA7B7AC15FACAC2B5ABBCD7DFF542C5314FDAB2E1B9D8B65220B8E2B638BE008E8DCA22678C820C5053664D15E89F2D735B51A84955E81A443545E9FF787BE0FA700A76D136C27DA179A7C6E8939E01BE756E19CB292798063D8B97F44E8A27B
311
CF3A614FEB8BE974A718E86F7EC99B53CA35FA24F61F2B07266684623A3D4CF073E511F3A10A8FDAFAF0078C577F4DF9D339FE7862E5FA47CF4344209E5BF76D783B1B48E152AD281B15FCB934DCDA49CEC5706B1EE8B460F435324A5CAD154725E21AB8044B75A557A79F6C807B9340AA3D92503E866F4274412926C8C504
311
E4D5EF8C0E68DD0B028781A6B4054F11CF18941F101C57CCC796773ABC8DED9CD91FE5788806C05E548895354AEAC96546D55B0E94A59F148D061F42AA398D822CDECA4CDE79E13469BDCC44FDC990F366BA5978C15F97ED80CBFD73B0CD9B8B83A4F6845BDFBFAF034019473FB9A63BD55D3A4A7284757071574029A4D016
311
DCCBE95DD679EF3C4880BF169422F8C89B68A988D2B13793CAED4F74DE7486C72DC94DF46B8E93D8E02EFCB1FF9B3BA10C8AE7F653DF94F4AF466CDDCEF5776687F7C4C14B63E4EED1719DC2EC482D7DBCC7AE518CDE3D5FF86D39000EC3673C0044E1D308BF05F74D1B5F033A7D1BE7F74BC55BBE3E4A20F920946CA0271E
311
B17BD2B80E5660ACB8A29A79F5E4BBA49D4D945B6EEF4A7EFEAA65E5555BBB57A7E15D2F83C69F30BBB978D2B39F1F26FC097424D39BB33CA3D87ABF64E307938B685BAD44F71556A30B7E712CA4FE600613C3E554B69ADE949A7CFE214DF1FFF05CB82151EC6FC31950239F94CF7AD39DC473F6EA356E5EC2C4EFA04383CE
311
FE985A127484366FBEE3C0EC4FEA363E4F6632AE781392FD45D67B63FB8DF70E82734F431FD3443172A0E30A83D60982D55FA6A2CF86DBA8382502ACC6CDEF3B907982EED1160E14863FA242F9757347E1544275CCDCF71ECD5F8621CBEA326B8BA884AD7F825781923E66971F04010D574C541D8427A438A37EEF8AF88240
311
EED7362C953F5A81DE2D56109CDE2524EA0F5D2F87308C0C47BD97AD605878AB8589E17CA83930CB5E0DCCD75853D68B1AB136594926DE426C367428E9334AFAFF90ECE221BB5DC9E5BB53D2CDEF954EAA9CD814F0E5725F1965DD458E5F8487683AD86B9D0076BE3EE91EB1CECC5331A67A3F79D8B27587C12EC2A6A70474
311
749F27B4C0BBAFB94B34189E88DC18964BE4121B9137FD516C7755356E50D6714E31ACD222621EBBCD1CFF81D87479056A9DA0E0B8EA19D24CF937DA89F78E8650CCBDC110AAB6C4E46DCBFD0446BA9E2060E81F314AC2031E88135E5476AC0160EF5C0DD2EEF1B8B5CB2D198BE9A554A9093B5F7D7E4B5407DDFCA1D9C152
311
FD97F55BFFFDFE802954DFEC8995B983E28AC92F1971E28F531DC407A1280EB125F64A72E617EFB27DFBCEDCDA2D6F2BDADA36873EE46B9BE1782998C63DA7182BC383FB6FD15DA472B175D7E8B4FC88F38D6E07FEAA3FA3CBB8F6B449ECF14D2175E5C5CCA3A42ABF24CA6C9395AF74535F4DDB38CB84F56614B0FD32D7E1
311
9CA5CF988DB4449C40E23DF2B16772594554579094450F56F253CD25EA7F77366FB1CFE79696C428BB64D5A41E986189427E5E4D7E2DAE3D5BB4972B3DC44EAABDDDD63A2264ECFA5C786EB0EE1FDC5BE34FA0F08376869FD1E61EA06CAE15191135445EE8F0394161C3266A596AA035572BB0C8876180D8B9C77D307DF9DC
311
DF7365ABDA6F3A2366436457A4DFC1F259666569A9E4A79C817BDD5610E5200FCE894A358EC72858D50EF67545DA81C6FACE3D457BAF70367E1E6BDD9A952FB4F56247F58F523B97E640246051A72F79BE42FFA0B3187F63097F91C48B868586F714B0EBD5A00A8412C1236E1298F60C72BE6C96B82B404CADAA304AE9F303
311
176B14BA53FBC2D5E86377E35542019E24D97B96A49B2C0E5006E7795954DEAF5DA58958839043C6C70BD3B1B33B6DC5C31316D8A6923F142E26F6711A2258AF977DDF1F970ECC4F1F2B434B96D81BEB6E89BF3BBB3C7C8CC80505070723D6D7D7D3C8CA27CA164A26024FED94B12A86031867241DA53D929636DA600F050B
311
C40CE48B8BA03D69224720DEE2ED2127390BDF5E6EA64527BBD4C4C63FA76BB801FEEC0E61218EC98A8A86CD8313781617877E66692839B9468CF4DB8E50A73986E558E309C0D6F676F921BE02F1185454DC75B111572FF9D27D85EA14C05AD7271225B391C4275659CA4A43759D0BA44639BE4C30A84DB7F67A41399FB95C
311
BF923B1B1672ABC807C1590557FB18D811983FA97F5E609516D62281D38B1281F68FC75528C35E4CD7DF0F7DBB5E5DD69C414EBEA2F4A5B241B996BA77AE6C772E367408C633EA3E438B68563EA8BE7667F3A4C4FDEEA52ABD78A2820F443B7914A15F180018D231E64519C56A12F6CA7C8DAE18F06F6B769DBF92329EF6A5
311
D18FBCE600F36BD8E8198DE5CDAA96181F3A756EBA5501CEE58F497EA4F418A2B82565B9BCC611713C0B708CCA1F398B78C5F7D03B3437CC18F13061F55C7BEDADD5ACB1DB0E36D3CE47FF6EA1A563A57E9649EA5D14D1A50EAA457463381C073777EF1600607BAF6428A7DDC079D47A204EF1E1F1F0589FB054D45E02CE62
311
3B3823C317C601E589E22B1E88B448524B86A82828E32345EC18AE17214B42F8C41C6D428016D9BA31DDCB47572561E5A402E5BA4FCE55F78AF7268524AA04130F3A20BA5D1E9F9948EA48FC8F5314FDB35E21898198060034ACE5E3E2BBCA34092518F275190AF65F45867FF0900AA4B81F25427414C372BF51DC29AA855C
311
5428EE1EEDD6B849AD60F6E73475C2D2523F8A2772C840A478DED18A8C5C91B085F255DC4F54EA7AA8947354FD17ECF8FB3B4A0DE7B483CAF3A1165EE05BBA413E5C1FEF3DE1D6B8F2F3F3251C17D9FCAB48A9AAF63AC773A0E413BBC46A9ADF84A566FC920E4D8C52C9769EE3301CADEEEDD92B312E02E2A7E35B7F1E7D20
311
3FE5A7D75578B06E99D0E46FFADB8FDA17ED8880390DA29094202D6F645F76F6F96409CDA05495A96E84B04A00D1A6C6C81D7F3DE9376E828CCF144EE50E364ACCE7237EA0BFB5607ED1AC3CFE73794E5B61739D14DF1743441B1AC98F00ECEDE9E7301FA29755FBEFA68C91EF2B314CF510537EF1ABFC9A762496280B546F
311
5EDAAF8A5B387D469FC9A878A92828C88608453ACEC6094DCA54111E7AD5B2663DFE2DD151B7F123B9F4FEF8EE36AB125FD7AD52A59B1B765B3E3F73E3F73DEA93875004D2AFFE3CDE9493B87A9904DD052028949041A91DC0E1BA47BA714343FD5B25E0A6A09503AFC17C790058A836A324FE31D7893512E28230332F1531
311
81C1E018E1124EBE1BA262AA428A518237D1EA7275E48C5C561BD19ED6912EDD8367DA0F31E40EEAE9683DA9257525AEA7B632B97119E17145A90231768A4F3B9120FF32E8319B015E3CBE26F1A754177D8185345817C096B0CE443A955D13AC15E1FB5DEEA0239EC32A3C92241A237B0B02FFCB4F93CF2B02570C8D192E2F
311
2A68CEEB42F12E6F8CEEFF46C251E22B4341C56FB08CCE550E7A9D6F4D6564B9EA52A83D5BF2C6E03FA19D2775E15A8A7ACF30A13C259EE7F5EF2AC3BA354F1500E1A07FC63FB4686E2F12EC69719F9ECF5FE3F35598DF2CE944008CE78F0911BA5BE5D0A34E0098FF038669C26030BA9B300303039852A8F6F496341737CA
311
7E0D2E3AAA36DE0A70AA7D9CA0D54D9AD84B18A44C9E625475E1C97B93BEBB38DCE7D227E67A2D00F531436136355F243D1FC0D712C5765754FA22FCFFAE97919161F46D6E61ACB37D83777B385889770B50765B127768443A5C4D3A4E35A3151111F146B7CA116F918A049F1C272F2CD7976C69A0068773451659A97E0F4A
311
08FE604C3FF6CE7385DB19F4D3ABC8A0D80DA8A42096AC377DB49382B36E270B6FA7570188B4B7D1DDDDA82ACA487CCA5D38BD3BD039ADBAFA4ACFF27809239B722081E2EB9F145320553D183F28471C388BC8814E5045676767AB58A8E72D1CED2CA731379515D2E533E4CF0B39DFC625F97AC4836831A4DE330E87A8126F
311
A17EBE583D614E71E22A8DBF2825599743E0640037303E8E1B1E8EA4E1ABFA4F62907B5E4E0E5DCFDAB417C36C6848A2B8D15F1E505434C0707E16B1CFC2A1C36A42BBF55734F8F4301DDC2A5110CEE8C0747F69519265012A2174BF4E955ECD4FDE095A3ABC70536B7AD0B9D7892F81287D667C108703C9B66A221E9A0929
311
D030008F77FF6F5D2108EF5706FC87A3069B976F7C9FC3239D13D283CDEA83597461079FEEE049B0F392889898B7D87D31F8D60ED7B56B91823A8E4EDDB36C6172ECEE42BD42B12CD67994FA0F0DFAE9389356F4CD4425A4B8AA55CBF7ECD585C6A2C2316791E43D5C06841ADBB226A87FD61515FFBB0167B74E56BD7F3E90
311
A57A97FEDCBDF483A0D6699A8C0849CAEB4947FAA90D8E332D9DEBD9F4738C37DA0CAF9CF3DAA68BCB67C420459C7A64498D6E848E5CADE92BB6901F607AA331104A67F7CD650EE169B1DAE94D2C31C2F993632259B6957E246EFE4C5481107B07118607700040E5812A2A2A38DA0076875258C753F60E0F2662C748EDD5F3
311
F3686B8FC3BD6FE631ECCAA1E8B1C1E565AD117E54893E79F4672E32F9E46B2A183DFDCF3EECB4D4D077DBEA0DA254D256045109670050129E9B9B1A9E4A11344D61497A992778095151510C4BB7EF2009B63AA4360635312E4CF668B7E0D3D85A8688E2BD83B569439892ADB63461930D428E0DE42E4AC57CE48DA5CC1449
311
530D8BD3D6A0F08DF20C8E8F570F2CFFFCEA286E30969B4654D498A58D9DA782E19FE3F002181838925592C4A1EF0B332D88B61A92C644547BED490D3A42CFFAB70E36D961F694F6307F72FF15A1C79D5B1B5CEFD353D9E2B52566DEC8F8F09CB3E8359C0F68EBBB7898243E34E12A015B2685AB303C04D3A9E00671FF3DFF
311
0A184E4A2ABEB2B666AF5B3A209C73D8EF29DCDB069C9F391EEE9DD0F74C7BCDE16F8F02E3B8816122BBEB50665775B600549D8BB33A54A6BF940C028118BC6878C79958D6784F9DEAA6E26748386FFAF8D0D0101E2847B6563F5D8DC1D78F787BE00E2C941AE12148D4A81599FE8F68D4DA5CDED75530ADE138240300EE13
311
B0FC13A1687FED6774662C05A2B7DFB186732F0D7A93545D8B0A6390AE5054D9CB582DA846D7A061B3358B45E2B52DDE63E114397EDB7E09233A579155D795BE76102CF277F4DF8B188C4F2879BEAE3C08347124BF9ED23B128259FE107D31E34A652F090B30B39E0D9AF917B76A2806135621A8A60681F16AF216514BBD02
311
711585B5B1AE823F4B2D0369EA5B6BCB863072727FFC871CA6C9AB79A814D989057E9470A3D238BC87CBB4A0EA49AFE2B86F22E499793CAA9047080450166BDC357524561E258C77CB697F1ABB32562CF87C3B7AA12F911EF19FB3E5C02222E887D08202A60A17151F5E053A86B437771088B4FEE14D652C43E8D939995D34
311
545E12E2FF93D4E366EAD25F10CB7DED141563C3D0C447AF06078A91135FD4B9611583CB4BF3BD167F2399CEAB0E0100F8FFC305F00F1711717173138B4B48C83022295DE657EFEDD97F238ECA80F528AFB4F8D67AD4E2594B9A3AA86D7487EFC313BA95745C186F0CDD84CC12DC9CB0424B42203D351FD9C0A3AF10CC7F38
311
8E0329279087386421F194F4A29464C1DEF7EF8BE515E4A199DCD5B909342598D8FE6A231F71336248D5CEC5454455C7BE383B3BC7B260FED27F703FDC39A170F3827239102F59D4DEE7FEF82EAA1A5E4BA94DCC4CC44E7E2EDE20F24244E4454369D2E87C3F823F193FD4FD27E1C23984B01898D15ABC20711A8A55805495
311
1A6AE280096BA36CBA439603B7B0B4C45F248C14B2383B4B5CD8ECECE4FF859AD4A6CA2326D020EF090F4041D28DB66E5256B56232CC52829DE8060BAE6BBF37D4B7469B822454FE93210A3E8D15E69FFCF01123222611C51C4FD0A041A0CFA2471CF6BE38D2B20FA4C3525B5B8B586759475CF80ADFE67A284AC24651E52B
311
8E683D24C2622642F27E7C3C22783BCF63648BC398BD6CD0D9C97E7E7E3EACB6126DB7A6C1FD9F1031302EE67ED96F22B77C7CA0239BB324207559B105E4693EB26EC46182A92C9C0DBD24F29B31C5C5AC1F84300E0E17CEEAC15F5736FA4A98971E2F1423BFCD68D4BBD5F86E74B40A369F39507C88FCDB35D2DD8DEBEA4A
311
F999E23CF2816D204200DF6E611781B9884C1AC8888B4DE397320472959434323A5A36B22A8E1F721A270DF3BD65E4A31C11FF048AFB0D8B7B6881423793963A23CFCE935FC189ED36FAE35C46DA3574C979E4394BE52084F3081837BE033396D2EBD80F1F691B273F660D2B32FA27A33B1DE4ADA5F0FA4651511102DFA410
311
DDA86E065272CA314D5249DF91B06BB92807B28EFD54F08F7B525252782CD276DD02E6B0319B13DF87B1F6361AD6B28FC0D711CF445429B9E5A433CD493051C49A9E03DDB1B147D880253514A5DED88009018620EE229101C041950E2D8AA8E1F5F5438E0C0C0C60EEDEE9E3E0C051948C69F84BB7B2A48A1F3C8EB9E68646
311
87F4F4F6F6E2FA87608ADAF9C5E117B7C1A737E710769DA1D15ECE6A84502AA855398712D5FB51BE92E4EF824969CE18278798AC303C2C7980DD2500ADF8FB1E6D6C2FAAFF9987178923334A244758BAA01A9A1B70FA5097D01E1CC2A58DAD0EC94CE6430AA9B0C10D75E3C6BAC670EFBADEE1607739CE0FC18A2587E3EC30
311
58562014C64219C69BC269082D5C2F4A659278D585755912176D78A1B641719C2A394CED495A1AC5D583FD2F5EDD93308EA7EAE8A6DD396598BDBD3D4CFED62D18A5BDFDE0DD5C80D1A89BA62697B131AE7CE9A6594138582F1B37D68F1749AC7CB67A70695D48A4A056AC1FBD4E82358CEAE38F54B95A9016F9000F9879C0
311
D9D131768635CA798895F27D6F1614F11F2838A83611AA51C9A3DDB539D42979C29F10465655C17BEC3E2760B80DCBF609198C7B171A531905F3EC218D696025975E986C6B4C666666787271F202805577DD5A3EF0CAFAF91B62DC4B2DB4217A7606282F31D8DDBC290593BAA93EA6353AFA9939B877978481E15CFC9F2755
311
CDC00C538F63A4BA3E80AE009B73CA0185687D339A507D165B74290D6EE46D5C58148F020C3668ABE9EF2F7549170DC80DB41FFC1D678FF19AEB10C7133832B104B80F691B3138F97A92D26E551F1F110400D45AC71A9B9AC41A1A1B1DAEED0B0810638EFFB511D46B121C6FEA0F38CD00E03CFFEB9713FE1F9C263E4DDEC1
311
60D0497FA9A132BA608584057FB15380825DE6C7FC3C667EE947D488A09898D8E939C4953BF4EC9836344D2CC6B2971B2A21A572B06096F4982D2CC7232D46E8EA69DC83722E267754D777F97F96D5DA74E1E75178084D0E70F12AD33E5F71EF2AFA599B2BEBF60A5BE475F444F240CBFE8143C334E7ED9150FEEFEF7EB020
311
C4DBED388DD1D6A167A76F3CBF119B578AE8CFA7736ACAFA4440A1C47185638A0D2F3EB5BDDEFDA958FB13CE4AA4923D5BF840392D45544329525749734866684BF7F8D9D54D892E19BCA9F829A0F8BFCBEEA6CFDFC61D74EA1A645ED7A1FF241739F15694BD835B66FEC5677E40FE69BD3F91AE402F036537218A401CB082
311
8604AD189E575015C6F3F6BBC8AC79CF6C70653847254B31551EFCBEB5978B9DB85D58D0FA41A9DFE9C624834AA04949D24B5AE6D299E072D152D12097920F14AA92C31C3B97E28B6C2E6E9C23D63043ECBBC0A60FDF5BD0C33C127EA8A3308B8B6AFFEB28B4455BF6E7AF4FC6222728357EB8E46E85053E6A8843AB23295B
311
F838ABDA94658FEF3F832F147046B4ACD6F7D48E8FCC9618582961C898D1C7A253C91BFECBDA6BA18A1FCF70755DCCEE2222F41B76D23CA98D0CB3D95F0CF66D57FFF65E2A90F5DF40FC3187621E981BD0BC1D992787212688976B94A8F0C6EF646624B570B78E068826F87CE27041A95C9A4871FF65CC17FCB1639629AD6A
311
9517000D63AC231F3D741CB8430777E7ECF80CE7A3F73C0F162F7E56AA71F4DA80A33CD6ACEE78E2C11FAC03DAFCE929B106F8F6B3ED2DC71FF994BD9CEF4E9A94896EF1B6E2B7B4978168BCF0847A3D2A4F1B0500B926E634B174548E9FBAD27153FB5FC36799B1E6C7C38A94E1F9E996796D7B485E635D5287A2AE76FBD1
311
1A341DB3F8F810385BB7296391973DC6C37C452A9305AEBBE0CDB6C566DB59FE60C8E94B1FD090354BF51439FFD1B48D725228FFA88C84F686F547107A7A235665A4593B7C34D748C1AC8D56DD5DA861EEFBADDECBBD65117E65851F90351AEB65F0EFCFF4BCFEF24CB7A5879699FAC437A7AF9099186CF006BB923A59E37D
311
7A36A29FD8D2CBB914A5E9D0A8FD212FBF796AE9A67958FF1D5D8B85F78F96219D4714EB919929241B6C018AAE0C02069F8D919961EC5DDFBFB7573E3AC8E08BFB7C8534BE6DE045B3CD63DBD71F7638BA2309CAE398EA3A7D8F98BBBC7AEB367EFA5CFA27A9F8F2F52FE878058E6209C026453F8E7E8A237DFC389E9590F6
311
059B397CFD65183BBF936E86896612A5B5FEE49DAC8455D026218AFEBEC12B3523A45B57B82C9C97E02ACFA1184DB18E48CF615DBF39C3CC6F0B4AE6BBEEA2E39D944E290302FA3DE33FA7E40296E2EF7BF1CD855BBECFAD0FD622BEE9746FC4FDFDE545AE6E3BC234CADF83A0FB76DFB145BF3828AE3436368AC24989454F
311
8FF70A177672C711CAA1A76107218CF948CA01F873520E7A2B118EBB161ABAD432932029628B6761590C98AB590C8C8C79798CE9F715BA696E839E9131A4BB68BE923F1747FBFF165331FFDD4D05997ACD168F12CA75348DAC04C7F509FE83898A8B421181AF492861CE81E4A2DD0A30850CFA95E05F097FF70F9E777310D5
311
84A75BA7018922E271DAB1D785671157685B7D383D3E074DDB4F1E44EF04B07BAAC75A062077C54B9752C738C9D804D402E02851F3F89605AF189738C18C021D2139EAF72513824E10DDD3047BACC8521ED7E98B257D1166903B1B08FA6F918FD7E162913FEC7D0EF4787E29C35FBA8C6E2C9C20E9AB30AE42CA2A01A090E7
311
D010C1B5BF9CEE2A304BF3A987FB40D836979B79E18D70F257DA61E808472DD85B82761825779D6B90CAEB0F23360C6F80A7D7D77545E95B3DFF0CF96A827F9B5BCECD2C9698718417EF80FEEDEE938AFF55859D0D540B7FE09435583A6F04874A0C7E8CF234DF4879722000167F5872CEC6BF3EF7E5A8CC8121E6A359227C
311
8A29C95212F9F735BC72A887D56B8F309FC525BFB4FD767AAEC4AEFF249CFBBD2DE1AB9969A6155C7D8DABC307E47324C1F916C7BCFF40ABA5644E9FFB9238D19ADADA49D9610F01ABBA57E4DFCBDCCBB2B93C8953206C91DE01B0E2651A6D6C31721915B31F7B7CBCE55466F6D70402788FA91D73BE4ADCBA99A35F17D6B8
311
3383704917D6833F0FA3CD45C926ADB8BC17999A4A0AFBCE2541F7B8CF4C2F5FBA611B3E626D64407CB32C122DFF4EF8674D6EDBB86C8F7C6A16D50FA685E2CCA34F8F7D1D8265BB0042E9D7F1F666F7BE5FAA5184DF58E12122A42EF02F461B3F369AC746F96528AD208512AB56844CF75B97F352DF7995024FB028553858
311
54F3798670D01CAC771AC3E1889EC25F61A20C1F8CAB46898817F9C47E2CDA1F286BF2F358298709FE567C91133E2638C8B53975E753EA8BFD3578B5F7186B7BF084EBA3F77BAC3132A5779902EC22AF2D2E79F42D324E083386DAEE9810D1B44A5DAA54513C7A71E52A4AB9257D975B621308FE4D2141CC3DCFE946C154A3
311
C1DFCCA7629EC69ACFA831634ADDA93C0388D2A9A2DDAFCF957C6995BCE7FBB6DC4EBAE79E63EB08E9A25F52F67076F7093CA545CA3053B5BF576DEAD4E0017143C5F759F32B2D6F145B52B67B48909B7C7FCA6586EE385A2189C16932CB6DDFD9152AE317C430492A578ED27B72D85D40C7C93C097939E1B50F4D67F05334
311
FE9DC362C30B7FF561B95259138ECFD9274C8D695C31B14D4EAA9F3D7FA8DDF652F8C5DEFA23284C799B7D94416DEE81E05A866302DC70192A5368EA65E1CED8BF107A1E2D3119A71E85DC1A7B0C1E93274CE04DD0F2ABC8AC7C987FDB002B6F81757B43502EF7A0D92E416494FAEEA4C9C090CD9557AA4D532F4996A272B9
311
4355C5A0E4974EEA9627476F30809B94D8D8D860062E02204643BEC7D0438AF800FC7E2B26955D595421E83C69E1A07E0E3122285835F014AD538188CF9737CE76D464A353FA55A001AB2526B84E985083693BC76FE211CA1D000679C889E3C009832C87E1AC2EDD05C302557422DF0800E316FCAC86978A371F025A6C7DAA
311
9F333E7BD160403A1A06EA75AA9888FF01504B0304140006080800C45E5A4C28BB58AF800100009E0500003D00000043373631353546442D383737332D344430332D423434352D3339313739443544453030312F536368656D61732F436F6D6D6F6E536368656D612E786D6CBD544D4FC23018BEFB2B96DE15493C78601010
311
A34B880709DEDFB52FD0D8B54BD70DF6EFED3AC0B12E6442E2716BFB3CEFF3D18E26FB440405EA8C2B1992E1C323095052C5B8DC842437EBFB673219DF8DA659866649B798C078B48AE6410122242F2A4994AC7F93815DF85C049C8564CA0A901499DD886B2EB9B1E02448F358701A9235880C49A0119892A20C89D1B9FD76
311
8815CAD268CB5E0355B40B1E47F3E37A2020464BED06AA57CE8FCC20C3C3446D46761A2632A8C1283D07031EFF2AE7CCB1BFEEE916E406DFAC8E36FFD99A9D60A6944090EEDC3B670C7DC13DE86B6B2C5C240D6E503BB85ACD579D513F1B9F9A69DC9CC22AFA80C426D40AF0B21EA168559156B6276F0F726A6BFF04DCD513
311
A87A62CAD41FB24FCB2858B3952E3D852084DA25B9303C15687973CC8E8AAE11DF2836C38C6A9E765E8C1BA1BFB1DC29CDFE518C8B5A7655A4ED7E77291ABEB80DBD82EC866ADE1B8D05AF9E35CF09D7A061F38A986D9EC412B8F0F65E5D81534D9B231D1E5A8FE577A241F3A5FD01504B0304140006080800C45E5A4CE336
311
299B9F040000341300003E00000043373631353546442D383737332D344430332D423434352D3339313739443544453030312F536368656D61732F47656E65726963536368656D612E786D6CD5585B6FE238147EDF5F61E5BD1498E9A895A02398AA5D1E2A5665BAAF96710C78D6B9C87168D95FBFE7F81242134A968E469A
311
4855437C72AEDFB965F4F53551642B7421B3741C0D7AFD88889467B14CD7E3A834AB8BEBE8EBED1FA3495108B3E01B91B0DBD1F3EC8E6C991A470F22155A72F73CBABC1D4D5921DCD1934863A11F990102A6F61466977B8AC49FB13C174CB3940BE4504A22E3713489B7F82406516225536940BD88E4E552493E8E564C1522
311
225AB0384BD56E1C195DC26FAB13882C2EBD62E1FF9E5B0FCC453132C99548446A1872B62267078F1EF14C3DB1DD1952DDBBB384AD456779F387C51992E0ADCE12FED2622BC5CB1952FC9BDF3295E9206E961AB116DA7ACE45F76F07A26EFC3FD762FD7362FC3C0BAA4DB34C09E682CA5167BADCD16CF94370E331E2F1A3D8
311
52008AAD5D64BA2373478338AEB1583B905396D158182655E1B938D07926CF007CC7E85E6709999B0D3827C0BF406BEF55C68CF5579DA32C8C85BE03EFE788787E8FEC95DC85C3E31A615658D81F9A34499612004CE69CAB12531B15A887ACA642C110F8C1A8C1974A85853F407794695C905C688E69B116550ACA946B9B47
311
85FC179E0E229240B62665328E86D5BD2C800CF5D80289F35AC25E3DD51508F4BF9A74A0F5A557BB3D284BC6FF59312E282F956A75C5D453906F48D11A876599E49425602400842995BDF02C4D012E226658F78A710416AC552831FDDEF0E6F0BABEBEA9DC36718CCEF4DAC5A0DF871AECBDD8F448F015F8DA113A473609D1
311
751672B723874B2CAB21ECD6E284E51DCC7D1A47A00F60EC21DC4CC3CDC406DC03760A4E6C772F2F4D561A9AE58C4B03F5B4838701472139EDCB36819A66C472B52AB1139C648956F43E0DAEC067B56B0818F5961D3D446B8F1E1E78C0EAD7EE02AF2895D813E88AC5014A7B436DBB20F778D40A1D9737EFE45B47D49CC836
311
0F9966B15AABAC802C1005548A93EE469F5D55317CD8BF0AA86CABADB2A009D4D6F60CFE53AE370AFE8C45415B15D362A5A038E766E34B00F8C2E3E7098E2093B1C96349FDAEA158903B4BDAEA665F473FECE72186E3BDDCACCADA31839CD6D4FA7D47DF5469006ED340EBE71DF960DDEE88A3E17557039B58C278A1795BA8
311
079419DA8FC5BA1BAA1A66238BF69C7B2BE4E6274839122B7D00BE8B7D52CF61B2D63216046008C8B330FC10F8907787DEF061F47965BBA02FD8F53BA12F9827614979F53563D0BB1AD67A03DC0E00E2FB2CF3EFB457E70E65A3D7C78E7D700DBB45132AE9BBA5E468CD861408961AD8B00A55C2FCC677F4456039FD9F1907
311
A5B3E2D0EE845FDBA2DAFA88C64195671AD6D282DA2E45B1F50A0D632B0D0B6718757DCC7C84A70A3656F222CDA6DBF07E204AB358961D1BE31E53A82C2C0D56DBF61A5608B5A252A932A1DC6E32462430853353EA30417C8199A662E946A4EF352268B8CDB9A9C6762515ACE8E09BBC031C608A02C4BA89C9DDC074E46E0E
311
26A17BCBD4ED43270D03E3645ADB81F6D62CC07A3243EB81C07E01681DDF2DB4730631E6DDA6CBBD048BE9F06AEB3CF06B31DD6C9575E37E9FF17161342C4C76D95519672A6509E0F5C4E71B4B1916440059F57D0921F496237E473A83E3E4E06353BD9D27593594D7B6707C08D22FEBDFBFFE03504B0304140006080800C4
311
5E5A4C8DFFFC99640100009B0300004500000043373631353546442D383737332D344430332D423434352D3339313739443544453030312F536368656D61732F52656E6465724D6174657269616C536368656D612E786D6CA5535D6BC230147DDFAF08799F5FDB600FADA20EA430D968A7AF12D36B1B481349529DFF7EF9A8
311
5A718860DFDA73EFB987734EA3D16FC5D10E946652C4B8DFE9610482CA9C8922C6B5D93CBFE3D1F0291A6B0D26A3255464182D920FB4233CC629881CD49C18508CF000E3EE309A100D61622AAB4A8A33B2483F11CB639C545B0E1508438C3D3C0361192846DB7ACD198DF186700D182920B914FC1063A36AFBEE8FBA03FFD3
311
CC1D1F4FC9E151A2AF59F628C5B7821D83FDFD3489305080F2EE04BF962195FB285E9D2DD352320A9E827AE357594914E42B1F5FE35F83688F60C4C91A6C946ED0668E8F244BC2EB0BA6E3BCCFC0B6A4B507F9F9F8D51EB315D9BA9E08D308E89F96931666E577837E2B4172199C68C4FE306156D47DF51C698C7B9D97FE5B
311
EFE2190C3C38BB054E6E8163FB039CB4B993C80BF18D969203116D6BBD26238B821F9BB909AD6D9C71B85BCD8C33D66FEA3D31B4BC0AD45BEA46BBEDDFEC0F504B0304140006080800C45E5A4C22C511F751000000570000004700000043373631353546442D383737332D344430332D423434352D33393137394435444530
311
30312F4173736574446174612F41737365745461626C654F66436F6E74656E74732E62696E536160607033303032753235D575733372D435B170B5D4757476B2D07531313576347675313470731102AACB4D2C492DCA4CCC492C28484D2C4ACC4B4E050A82012F90744FCD03CA26072767A4E6260200504B03041400060808
311
00C45E5A4CF865834058000000680000004500000043373631353546442D383737332D344430332D423434352D3339313739443544453030312F4173736574446174612F53747265616D56657273696F6E5461626C652E696E66558CBD0A80300C06F73E4B117FB66E451741D041DC5BF98480A492E4FDD18EAEC7DD4555D8
311
9EF28DF51A0B1BD8340C4DE7DD848B988C0ACF0649566493F2408C508DDEBB99D5129FF8F1AF8CF5B9503E20FAE5A16B5AF702504B0304140006080800C45E5A4C705E92AC37010000A20400003600000043373631353546442D383737332D344430332D423434352D3339313739443544453030312F417373657444617461
311
2F636E782E786D6CCD94314FC3301085FF4A6489317612012A95E30AC1D209242A06B6AB7329561D3BB22F08FE3D769B0154C4D4A1EBE9BBBBE727BF93ABCFC1161F18A2F1AE6535AF58814EFBCEB85DCB26EACB052B564A06EFE907C60A0703B62C979992BBE0A7712E75D8C36473D51AB79F8BF731226D606BF1A97FF08E
311
D0516485B61063CBA27EC701384CE43B8C7BDE0101AF79C0E8A7A0314D2233E03C490704C28EA9A6AA1765D594CDEDA6AE9737D7CBEAEE4D8A4C2AB9F5DECEBC49CB821FAF9A4A1FF7325549910125A760662ABF86A9BF54F2AD71522452C94821B93277D0D7983A601CADD140C93CE1352195094218A438C24A8AECC22F2F
311
1EB137CEE496759206E4C3731288810C5EA027FFA93DBF376B17099CC64B76E454E3F97D7839FCA2D7632C0FB9B9BCB49C6AE4C6F567C88A389C93149D7C5DD437504B0304140006080800C45E5A4C77B4A6F7E7000000600100006700000043373631353546442D383737332D344430332D423434352D3339313739443544
311
453030312F5265736F75726365732F46303032354235352D464632412D343845392D414342382D4434353341334544313046442F7468756D626E61696C2F302F636E782E786D6C4D90C16EC4200C447F2542EA3181446DB55D11F6277AEAA5728937454B300253B57F5F6839EC69ACF193E5197DF93EFCF085293B0AAB9827
311
25060C963617F65514BE8E27315C8C4E447C878921C081AB68B6307A4F5462B736BC42F1CDF52EDCBAB963C0E4EC7B0CBB18AC879C5791ED271E304161DA30DFA60D18A6794A98A9248BF500BB03FB019B1018376116359F46B58CCBF3EB3C9F9F1ECFEAE54DCB461AFD41E43BEF0263A2F8B0284B750CF51FA565038C2EC9
311
75AA8510E6EE392DEBD2E8CCA9E6EF10FFC40A418CDE59E05A9324CBC86385100E2DFF61A365CB5BE5AF8CAAAD1BF30B504B0304140006080800C45E5A4CA233C2345D000000800000006500000043373631353546442D383737332D344430332D423434352D3339313739443544453030312F5265736F75726365732F4630
311
3032354235352D464632412D343845392D414342382D4434353341334544313046442F7468756D626E61696C2F636E782E786D6C4D8B490E80201004BF42E6EE76F3C0F216234B883063108CCF170C074F95AE5473F5C4C06E932E4F28601967600677D21E9D8092EDB002539227A2FCCB80E1168D80A6417297A89C5D6963
311
B7129A0D1E8F2EE73AA7B62BBEB8B27DE50B504B0304140006080800C45E5A4CBE89762363000000880000005B00000043373631353546442D383737332D344430332D423434352D3339313739443544453030312F5265736F75726365732F46303032354235352D464632412D343845392D414342382D4434353341334544
311
313046442F636E782E786D6C4DCC3B0E80201004D0AB90EDFD75167CCE820A4A845D83603CBE602CAC26799919AEEEE0D965E2E908050C6D0FCCE04C8BC355404EB6198129C92351FAD580A10E464065907C8D948F8F166375F655BDC3FDC3B4E530A176BE7057BDC43B2A593FE403504B0304140006080800C45E5A4C13B3
311
10267F000000A30000003600000043373631353546442D383737332D344430332D423434352D3339313739443544453030312F5265736F75726365732F636E782E786D6C4D8C4D0AC3201805AF22DFDED6FC0816D4606ABC47684C90261A6C2C3D7EB564D1D583E1CDF0EEB3ADE86DE3CB052FA0BA1040D63FC2E4FC22201D
311
3366803AC96308C7DF0D901F372BA060907C8921ED279AEC3CA6B5D0D5F9E7090D2135ED29C5C6D40AB76CB86175EF19D62D6D5433E88A189D8D6B51F2FC7A794B5E7E01504B0304140006080800C45E5A4CFBDA18A60B010000550300003400000043373631353546442D383737332D344430332D423434352D3339313739
311
443544453030312F536368656D61732F636E782E786D6CCD93BD4E042114855F65426239C04CD4AC1B862D2CAC6CD4CA0E99BB2B59E04EF831FAF6C248B19BD869B11D9C7CB939E7C015BB4F67BB0F08D1A09FC84039E9C06B9C8D3F4C24A77DBF21DD4E8A80984E30D279E560225526521C02E6A54933EC55B655B5C61F9B
311
788FCEA17FD6EFE014E9B455314E24AE57AA72C219E291CE2A293AD0001173D0502624E3A04DD001548299C8910F9B9E8FFD78FB320CDB9BEB2DBF7B15AC9252BC21DAC61B9F20E07235728DE5E88B212E5805A4C8C134AAA620F2D41D2D7D08560829620AA58546A6AFA5906A59ACD12A95B2D80AFE3052B01AF62CF20378
311
08465F6AE6337BFF16FA09FC0CE1B1BC5430CA5E6AF6DF5CFEAD02B66E40F9067521E437504B0304140006080800C45E5A4CE3603EBE7A000000C20000002C00000043373631353546442D383737332D344430332D423434352D3339313739443544453030312F636E782E786D6C6DCD410EC2201085E1AB90D9DBEACE05D0
311
9878023D01A1D34A8419C380F1F82DA68B9AB8FDFEC93C3D7C52546FCC12980C9CBA232824CF63A0D9402DD3E10C6AB03A3397DD192872090D3406ABE7CCF5B5D18893ABB1690CF4DCF02282E5EA8A5BB96FFE536F285CB347F95BEFFE81C9ED5AFF9D5B1FB575BB00504B0304140006080800C45E5A4C5314A3487D000000
311
A300000007000000636E782E786D6C4D8CD10AC22018465F45FE7B4B5173037550D67B8CE686E4346C468F9FC62EBAFAE0F09DA386CF1AD0DBE5974F51033D10402EDED3E4E3A2A16C33EE000D46E594B6BF1BA038AE4E43C360D4925379EE6872F35842A3C1C7C70E2FF24485B859DC49C930B784E133E702B39ECADE0A7B
311
258456E3D8943ABF5EDD96375F504B0304140006080800C45E5A4CCA1DF9C9A900000073010000130000005B436F6E74656E745F54797065735D2E786D6CA590410EC2300C04BF12E5DEBA70400835E500FC800F84E0B411AD13252E2ABF27A55740421CEDDDD9B55CEFA7A117778CC979527255565220197F75D42A39B22D
311
B652EC9BFAFC089844F65252B2630E3B80643A1C742A7D40CA8AF571D09CC7D842D0E6A65B8475556DC07862242E78CE904D7D44ABC79EC569CAEBA537E3521C16DF5CA5A40EA17746733E0B6615DE7217475F386F18B9481C510F1F021CD9FF027EA0E1F5C4E609504B0304140006080800C45E5A4C3DEE336E6400000079
311
0000001B0000006175746F6465736B2D64657369676E2D7061636B6167652E786D6C35CBC10E83200C00D05F21DCA56CA76D41FC96062B120735B69A7DBE268BB7777961F8D5AF396893C2ADB70FE7ADA196782C2DF776D7A97B5933C430F15651E5469C55D70F80A4992A3ADC954792C525AE70A1E4D6AD9816CC044FEFDF
311
01FE3FDE907802504B0304140006080800C45E5A4C4EADCF6CF9000000960100003700000043373631353546442D383737332D344430332D423434352D3339313739443544453030312F4173736574446174612F636F72652E786D6C8550416EC32010FC8AB5776C70ECD8893051E2C62FE8A93704C44189C13250F5F985D8
311
95DA534FBB9A9D99DD1D7AFA9A9ED9A75A9CB6A6039263C89411566A337610FC0DB5909D185DACF5BF6890193EA90E120C8C8E8B0DF306096BBC32093556AA0DE4CE290F9978C6A60327EE6AE2390F3E32DC239FB978F051E5245F798C86A0E526D532BAE99B560BB0BE1976E7BE26A86FFA3DAA86BE422DB96274AD2E07D2
311
0CB827F5851649CCA8D7D3CF76B128EE95045662D2225CA272FF4EC8B1AE8EF8F0418BC464D4F925FEBC2D4DDF013BA7ABDFB8E7B458A77F5CC32CFF770DDAF85DB9B9AE0A078CC4235F03468B94522CAF08634D89B26F504B0304140006080800C45E5A4C1F60AEEAF40000008E0100006800000043373631353546442D38
311
3737332D344430332D423434352D3339313739443544453030312F5265736F75726365732F46303032354235352D464632412D343845392D414342382D4434353341334544313046442F7468756D626E61696C2F302F636F72652E786D6C8550CB6E833010FC15B477834D20249171D458E10B7AEACD320EB1126CE447D5CF
311
AF1DA8D49E7ADAD5ECCCECEED0F3D7FC2C3E95F3DA9A1E4889A15046DA519BA987186EE800C59951676DF84583C28859F59061607472362E1B24AD09CA64D4D8516DA0F05E0528E433353D787957B328450C89E11FE522E4434CAA24E5CA6334463D6E523D26377DD3CA01E3DDB07BE32D41BCE37BD40CBC410772C5E8DA5C
311
8EA41B3027ED855659CC68D0F3CF76E994086A0456637240B846F5FE9D9053DB9CF0F1835699C9A80F2EFDBC2DCDDF01C3B45AD13F6E7119FF778BDA845DBDB9AD0A0F8CA4E35E0346AB9C4E2AAFE852CD49B26F504B0304140006080800C45E5A4C2E63FE6EFA000000960100006600000043373631353546442D38373733
311
2D344430332D423434352D3339313739443544453030312F5265736F75726365732F46303032354235352D464632412D343845392D414342382D4434353341334544313046442F7468756D626E61696C2F636F72652E786D6C8550CB6E833010FC15B477834D202491719458E10B7AEACD058758011BF951F5F36B072AB5A7
311
9E76353B33BB3BF4FC354FD9A7B44E19DD02C9316452F766507A6C21F83B3A407666D41AE37FD120D362962D2418181DAD09CB06F5467BA913AACD20375038273D64FD149B165CFF90B3C845F091E19EF922FAA718654EF295C768086AD8A46A886EEAAEA405C69B6E77E13541BCE17B5475BC420772C3E8565D8FA4E93027
311
F5951649CCA857F3CFF6DE4AE1E500ACC4E4807089CAFD1B21A7BA3AE1E33B2D129351E76DFC795B9ABE03E61F61FED0424DB458A77F5CC332FCEF1A94F6BB72735D150E188947BE068C1629A5585E11C69A1265DF504B0304140006080800C45E5A4CC324D57C0E010000B10100005C00000043373631353546442D383737
311
332D344430332D423434352D3339313739443544453030312F5265736F75726365732F46303032354235352D464632412D343845392D414342382D4434353341334544313046442F636F72652E786D6C8590D16E832018855FC5708F824A6B1BA4519427D8D5EE88D28EB44223B0ECF107D525DBD5AE7E7238878FFFD0CBD7
311
F2C83ED5EAB4352DC039029932939DB5B9B520F82B6C40766174B5D6FFB281CCC845B520C980D1DB6AC37397266BBC3249357656BB289D531E64D3231E5AE0A60FB5C85C061F1DEE9E3FE574973795E37CF3311A829EF7A89EE36BFAAAD50A183F8AAAE304437EE407580B5EC3068F088E757FC2478138263D2D529851AF97
311
1FFAB42AE9D50C588970035109CBC31BC667529FD1E99D16C9C9A8F36BDC7987A6ED00130895A427040A5176B06EC613EC78DFC0A12655578D034662A0C516FC030CCFF97F60D0C657E50EDC120E301CFFFFBA60B44805C6F16A37CE5436FB06504B0304140006080800C45E5A4CDAF1A831FA000000960100003700000043
311
373631353546442D383737332D344430332D423434352D3339313739443544453030312F5265736F75726365732F636F72652E786D6C8550CB6E833010FC15B47703261092C8386A50F880AAA7DE2CB3A156828DFCA8FAF9B50395DA534FBB9A9D99DD1D76FE9A1FD9275AA78CEE80E62564A8A519959E3A08FE460E909D39
311
B3C6F85F34C8B498B183040367933561D92069B4479D506D46DC40E11C7AC8E423361D38F981B3C845F091E1EEF922E45D4C98D37CE57116821A37A91AA39BBA29B4C0FB76D8BDF40D257DDBEF493DF43539D06B49AEF5E548DBA1EC697361451273E6D5FCB35D5A141E47E055490FA4AC48B57FA3F4D4D4A7F2F8CE8AC4E4
311
CC791B7FDE96A6EF80BFA233C14A74AC58A77F5CC332FEEF1A94F6BB6A735D150E388D473E079C1529A5589E11C69A12E5DF504B0304140006080800C45E5A4CE3F841AEF8000000940100003500000043373631353546442D383737332D344430332D423434352D3339313739443544453030312F536368656D61732F636F
311
72652E786D6C8550416E833010FC0ADABBC1261048641C35287CA03DF566D90EB5126C84EDAACFAF0D546A4F3DED6A76667677E8E56B7A669F6A71DA9A0E488E21534658A9CDD841F077D442766174B1D6FFA24166F8A43A4830303A2E36CC3B24ACF1CA24D458A976903BA73C64E2199B0E9CF85013CF79F091E11EF9CCC5
311
838F2A27F9C66334042D77A996D14DDFB55A80F5CD7078E96B82FAA63FA26AE82BD4921B46B7EA7A22CD807B525F6991C48C7A3DFD6C178BE25E496025262DC2252A8F6F849CEBEA8C4FEFB4484C469D5FE2CFFBD2F41DB0D7F54E478B6DF6C733CCF27FCFA08D3F94BBE7A670C0483C711D305AA48C6259038C35E5C9BE01
311
504B0304140006080800C45E5A4C3037AFA700010000D80100002D00000043373631353546442D383737332D344430332D423434352D3339313739443544453030312F636F72652E786D6C9591CB6EC32010457F05B1C7063F6227C2446ADD7E4157DD5133715162B07854FDFC42ED4AE9AE5D812EF7CC7067F8F973B9A10F
311
705E5B336056508CC04C5669330F38860BE9313A0BEEAC0D77368C8C5C60C059C682CFCEC67597266B0298AC1AAB6017A5F710309A6EE932603FBDC3220B194372F86BB1CAE92A672858B1F9040F7AF94127073280C2A2A2AC27B422D5E185B153DB9CE8F19597D92978D426D4D5DE0C963750C8AE21454A18E3E5F69C6C51
311
ABDDA455FAA4BE6870583C7607D6B6CF23E9BBAE26CD486BF2D0342DA98FAC3B8EEDF844692E9260C17D7069347B913C84BFE21BF82B5A5CD53FA36D84C7E22E5499E72C78F9BD8474E69D882F504B0304140006080800C45E5A4CF30C96C508010000B201000008000000636F72652E786D6C8D50416EC32010FC0ADA3B36
311
38769C4498A8B1E217F4D41B35C445B1C1021CB5BF2FC4AED4DE7A5A3433BB330C3B7F4E237A28E7B5350DD08C0052A6B7529BA18125DCF001D09933676DF8250364C4A41A4830703638BBCC1BD45B139449A8B1526DA0F05E0540FD181F0DF8FE434D22134B880A7FCF66D1DFC5A0329AAD3ACE829E7E567BA74450127841
311
E801930217FB574A4F557922C73796272567CBA2E566A56574D737AD1CF0B6EE762F6D45715BB77B5C766D890FF44AF0B5BC1C69DD9196561796A765CE7C70F1CFDB919833202F1EC997E52BC5D9BBB5E32688A124B266FC024E589E883FA19759FE23B43661576C07D70D0F9CC6404F221AA706E378D61B676A9B7F03504B
311
01021400140006080800C45E5A4CA07EF27AF8000000A80100004F000000000000000000000000000000000043373631353546442D383737332D344430332D423434352D3339313739443544453030312F4173736574446174612F446566696E6974696F6E4974657261746F7250726F706572746965732E62696E504B0102
311
1400140006080800C45E5A4C4AF6E9D1EC0000003002000045000000000000000000000000006501000043373631353546442D383737332D344430332D423434352D3339313739443544453030312F4173736574446174612F496E7374616E636550726F706572746965732E62696E504B01021400140006080800C45E5A4C
311
88E57597CD3F0000904100006B00000000000000000000000000B402000043373631353546442D383737332D344430332D423434352D3339313739443544453030312F5265736F75726365732F46303032354235352D464632412D343845392D414342382D4434353341334544313046442F7468756D626E61696C2F302F67
311
656E657269635F706E67504B01021400140006080800C45E5A4C28BB58AF800100009E0500003D000000000000000000000000000A43000043373631353546442D383737332D344430332D423434352D3339313739443544453030312F536368656D61732F436F6D6D6F6E536368656D612E786D6C504B0102140014000608
311
0800C45E5A4CE336299B9F040000341300003E00000000000000000000000000E544000043373631353546442D383737332D344430332D423434352D3339313739443544453030312F536368656D61732F47656E65726963536368656D612E786D6C504B01021400140006080800C45E5A4C8DFFFC99640100009B03000045
311
00000000000000000000000000E049000043373631353546442D383737332D344430332D423434352D3339313739443544453030312F536368656D61732F52656E6465724D6174657269616C536368656D612E786D6C504B01021400140006080800C45E5A4C22C511F7510000005700000047000000000000000000000000
311
00A74B000043373631353546442D383737332D344430332D423434352D3339313739443544453030312F4173736574446174612F41737365745461626C654F66436F6E74656E74732E62696E504B01021400140006080800C45E5A4CF8658340580000006800000045000000000000000000000000005D4C00004337363135
311
3546442D383737332D344430332D423434352D3339313739443544453030312F4173736574446174612F53747265616D56657273696F6E5461626C652E696E66504B01021400140006080800C45E5A4C705E92AC37010000A20400003600000000000000000000000000184D000043373631353546442D383737332D344430
311
332D423434352D3339313739443544453030312F4173736574446174612F636E782E786D6C504B01021400140006080800C45E5A4C77B4A6F7E7000000600100006700000000000000000000000000A34E000043373631353546442D383737332D344430332D423434352D3339313739443544453030312F5265736F757263
311
65732F46303032354235352D464632412D343845392D414342382D4434353341334544313046442F7468756D626E61696C2F302F636E782E786D6C504B01021400140006080800C45E5A4CA233C2345D0000008000000065000000000000000000000000000F50000043373631353546442D383737332D344430332D423434
311
352D3339313739443544453030312F5265736F75726365732F46303032354235352D464632412D343845392D414342382D4434353341334544313046442F7468756D626E61696C2F636E782E786D6C504B01021400140006080800C45E5A4CBE89762363000000880000005B00000000000000000000000000EF5000004337
311
3631353546442D383737332D344430332D423434352D3339313739443544453030312F5265736F75726365732F46303032354235352D464632412D343845392D414342382D4434353341334544313046442F636E782E786D6C504B01021400140006080800C45E5A4C13B310267F000000A300000036000000000000000000
311
00000000CB51000043373631353546442D383737332D344430332D423434352D3339313739443544453030312F5265736F75726365732F636E782E786D6C504B01021400140006080800C45E5A4CFBDA18A60B0100005503000034000000000000000000000000009E52000043373631353546442D383737332D344430332D
311
423434352D3339313739443544453030312F536368656D61732F636E782E786D6C504B01021400140006080800C45E5A4CE3603EBE7A000000C20000002C00000000000000000000000000FB53000043373631353546442D383737332D344430332D423434352D3339313739443544453030312F636E782E786D6C504B0102
311
1400140006080800C45E5A4C5314A3487D000000A30000000700000000000000000000000000BF540000636E782E786D6C504B01021400140006080800C45E5A4CCA1DF9C9A9000000730100001300000000000000000000000000615500005B436F6E74656E745F54797065735D2E786D6C504B01021400140006080800C4
311
5E5A4C3DEE336E64000000790000001B000000000000000000000000003B5600006175746F6465736B2D64657369676E2D7061636B6167652E786D6C504B01021400140006080800C45E5A4C4EADCF6CF9000000960100003700000000000000000000000000D856000043373631353546442D383737332D344430332D4234
311
34352D3339313739443544453030312F4173736574446174612F636F72652E786D6C504B01021400140006080800C45E5A4C1F60AEEAF40000008E01000068000000000000000000000000002658000043373631353546442D383737332D344430332D423434352D3339313739443544453030312F5265736F75726365732F
311
46303032354235352D464632412D343845392D414342382D4434353341334544313046442F7468756D626E61696C2F302F636F72652E786D6C504B01021400140006080800C45E5A4C2E63FE6EFA000000960100006600000000000000000000000000A059000043373631353546442D383737332D344430332D423434352D
311
3339313739443544453030312F5265736F75726365732F46303032354235352D464632412D343845392D414342382D4434353341334544313046442F7468756D626E61696C2F636F72652E786D6C504B01021400140006080800C45E5A4CC324D57C0E010000B10100005C000000000000000000000000001E5B0000433736
311
31353546442D383737332D344430332D423434352D3339313739443544453030312F5265736F75726365732F46303032354235352D464632412D343845392D414342382D4434353341334544313046442F636F72652E786D6C504B01021400140006080800C45E5A4CDAF1A831FA0000009601000037000000000000000000
311
00000000A65C000043373631353546442D383737332D344430332D423434352D3339313739443544453030312F5265736F75726365732F636F72652E786D6C504B01021400140006080800C45E5A4CE3F841AEF8000000940100003500000000000000000000000000F55D000043373631353546442D383737332D34443033
311
2D423434352D3339313739443544453030312F536368656D61732F636F72652E786D6C504B01021400140006080800C45E5A4C3037AFA700010000D80100002D00000000000000000000000000405F000043373631353546442D383737332D344430332D423434352D3339313739443544453030312F636F72652E786D6C50
311
4B01021400140006080800C45E5A4CF30C96C508010000B201000008000000000000000000000000008B600000636F72652E786D6C504B0506000000001A001A00210B0000B96100000000
310
504B0304140006080800C45E5A4C000000000000000000000000370000006662782F44343239333141442D354232432D343136422D383834312D3136413033374244333941432F617474726962757465732E62696E504B0304140006080800C45E5A4C000000000000000000000000350000006662782F4434323933314144
310
2D354232432D343136422D383834312D3136413033374244333941432F76657274696365732E62696E504B0304140006080800C45E5A4CF270F1330600000004000000360000006662782F44343239333141442D354232432D343136422D383834312D3136413033374244333941432F747269616E676C65732E62696E6366
310
60600000504B0304140006080800C45E5A4C88E57597CD3F000090410000420000006662782F44343239333141442D354232432D343136422D383834312D3136413033374244333941432F7265736F75726365732F322F305F67656E657269632E706E67355B773CD4FF1FBF73E71C0E67EF7576C9DEF3EC995D46C6A1EC50
310
46649CBDF79E192942562825CE965D8A868C2842C8DE9FDFD1F7E7F138F7078FCF6B3F5FCFD7EBFDFEC41B196891913091804020321D6D7513FC77D8C5070EC3FFEE51B21F068154CC75D455CC028A3EA68992803810109FDDE5D5CEC5521B28A1B422BF80741695D5B529DA1C2D058AD2388BDA9F476F7C2CADC939304173
310
DBF48A452BF8A700C0C70C3D121C1AA15A5270C22E2B9E28763651F7DA0D12CE11077B2ECD0D560B5E3DE2368B1E65C5E1C87384A4CC5F2D9FB8BE39E9B77C753783A37998F5CEF1B4FEE553463245C9712270880DF339E0B882A6BA713D865F6F384C842D440934EF264F4A304F8DE4EEFA1E2BF5E2D91F5ADD9613D6E31D
310
DB33ED31DB1D7916CAF091286EA3D31B9CFECB78BB0060245B943C4C040119FF780A74DD308BA9D028678674EB5504ECF284EE814DAED07440BAF649BE4B55DA2890F4D73E2D489A59EE54FDB0A85B59F2F52C4858A02705C4815A792B0C4A996A2023ECB195073E115E3E3647F64243A8338F2000BCB58DA5692C7E7C3D41
310
3F963FEDF3CF00FBB0F831A9D51360FECA43819F527B89FA260EB63C5DA676830AA3626A3693B23F1A17A0DFFCE3EE164E31B5365EDF0C89EF64D8E38AB0BA9A1117D7C3A0EC44F44F4023095E80BA610DE336D0F99593A88BFC5306E72DF98F7FD132ED95878DF2964EA7E43071359FD83B2BDF9C6B5BDF768F0F3C0FC351
310
199526F53D9460A34511F75D1B63E488178569472C91A94497807A3FD4A390C6558F26D416365C3656DE6E769DA9D8FC73774E1709812842DD8EF96AED1960F79D21B395CDDFE6F92CB4EB962A4668C76990E2EF29798C8941D67DA50F4A5F947872460F1F6FDB794E8A29FD7AC0C0D6E0714339CE258FB17AE8535221E346
310
4A10F29A0BE5EEECEFC5675926A89F49EB14E5711894F6586DB5754EB4D5DA9C6437EBA57DB97A24F8B8A8DB295FFD73266CF57E82694DF5166DDF93573AFE9C9C5EB05F8FEF8E89E0A8917B0B3724DB7BEBB53252581EFC3E38166BA131A3A5B42FE2AD00A769BBFA4458D2DE7822F8C4F63D0B8E21B285AE13325F3410A4
310
35C648C9D91FDEB109E73CEDA7BC796961AF79175E1A3CE4C5E8B0D009B0C9E29EFD98BC8E97554E3D8D838424E270F7685226E5AC268E021EDE3522D583E8F20C0BDE2959EF5BBFEEDAB32FE9A3ED0E39F211A86AA9DEBFC68182EDED132AB8BB794442D2D7EA9F4D8BFF52BC4D55BB165124EE90A42D101E67BBBB292FFB
310
4F66DE5BF2300E44546757DA7CEF8932BFC9F92A0707953491A55C5A5ACEDABD9FA1AEA01BAC3DC5A24E22E7C47213493996EFBC369D086ED9397C9BA6C7F9855C7BD5E15BFC8C53DB3D2A4C5901A57ACD2FBDF4D1676E95338B2C2BCE65FDA4C64F5FEFDC7D9CA5AA1FCF11E193F2FDABF0F4916BF13FB916A224380E6462
310
A9815F2300DC49CC4DF8D055CEF76462F4B7A7ACA7365C2707891370BC1D0AA6203C44CCAB47084FEC057F27FFCD57F89B8B9852459798A675C66BD7CE572CAF71FF7E6D7ECF7BF62CAB7B3F1107DCD04DC55A3F9961700286141C94A4F771FEB2BCDA2DDEE0CB0BAE402FF1DB0100F8E475DFFFC074DDB4498AB7D186A765
310
4DDB1CB680D703D47CEB4E72F8CB13D86A4AA68116E26387B93FD6738779B34FEDB8E517EDF2BAF28D9BE93A1D3A164320E07D42E514725C29515FF361754213EDE06B079A2E99EB1CA82A02019EADEEB87B9AF005BD04BBCECB14AACD6B24EFBE482194A97DD32400685FF1FEF1544D1B14EFB1E7F08E6D2CD2AF52DE757F
310
35F5E62332EE88EA26417AD5C3E0E319D68F25414E6D672BD4522B278C57D18F0113921C71D96527E091F00CEB15AE23D24667369BD3CEFA10C7549D930890BA4366F4EBC55F01F746109F98ABCDD5A3EE06619C6AD78AB33E48E4C9BD21BF7478B385EC05C4F8987E2C1BFA0A60EBEDAA0AE0B015C2720ECE180FB6F2DEFB
310
EB822D96338C9B63822183BBF52FB664A7AE57003AABCE512BF77E7E31BDA2E739AC4C131657DDFE5225E900FB56CC01CDE808FA4A9C9DA16AC679656BB64796283D89812B8F91136AE18EE5EBBAF47A73BE3C153EB5D4CD491B4BFB4FE690A4CF9ABA08C0D8AA64220C438C96EA6CA80B58FE5761E697B3A292EB9FBDA502
310
FA863E49FE694ADDFFF9D62C520BDD1A22014147A0903A05B9B729F54272EF83931FEEC057BFF8C8055C279EAC5C0011804828734024F6CFA319C9CC6867C727184465CD9BB7ED386AFFD96B294A85E3802FAE47244602D8273615952B98C4F23F7EAE4463D9D638EEE374A20959E0FE519C4CFB0FBFE5DD80C2AA3F9DB961
310
D1BDE57E67C9BB47B77FDD74EE3094F5DBBE3EBC1FBDB7393F5116263009E2EFE1AF9A221B2AE234C902BF70E9F280ED23E73908361565964333A3F01D0B006AF32FB21AA1316744B489D5A198E85299241735BE559675130955C902A8ED761FC0DBE337A9F91919AF5CE32AF902ADF9AB2615E00E8A94586BA1A90839B618
310
32FF1BFB76D2EFADE6DB1BA04CCAD3DA649E7E2A0219F592E22F2AD54847EEA8E42271011E9074F8F3DD9FBA6CDF88FFC9FC7E811AD1CA8F4557CE4AFC7BBEDCF0114A48689F20A584520C74DA8127124B767E2FB91A6B186246727BE63C9445BAE02088D58B8EFDC0F1072407CD9B89A13F6303B4A928F593AD489B58E686
310
9325790ADC406036C591729FE14021F94B7796BB11848D463536A092A26F077F94639F7CEEE2A724C66EC885F4A24F8B8A0AC321F8FD149BA529460FAA34E4663C02D41FDF80BCA222D42F0ABFF8490F4FA74C673807C2051D8E467B47B616072860069A9A303ABA9B319D58404461401B0A0F9BE5E1E151C14BC33B32ABE0
310
3DDE91708DFAEB15E7C0D593C86BB7D7EC17BE56E57975F077BFD5525F3A1A361D584A75E08CF29FC7B44B2B3085014F3A5A14517377C3F6B8F37E59514C3B12F8AACDEDDA4DFC49BE5710101534CD6FB6DE15B50F11A09472AABA727F0C49D9CB906B158030065F48EB3625E010CEC1D511D0053474B11E6A4F01C0D6EF1B
310
ED3A944FDEC70E0DDCDC756C86545910E0DAE3BE3AA9A404574C2995CD5CAF9549226BC94B4F4F0F5F9086F418F6B32346464610D8BC7391D3C3A3CCF04CFC1FB2A3A3170E369511868F14EEA4E5E438CC73DB1F3248AA94B6B2FF33B222FF3D1E7BF146CAD229770158063BCE4F5391964DF62F7E52A7BE0EEA829C9E13C4
310
C147D6F93FE59E111DAB5E4594D6F3CD1AD375EE039930EFE5AF2BB2D41C83C7DABD8C659BAFBE8FAB392CA634F3D15C1D945DB4588D2B0824A4EC928AAC565557CA2F0DAA588CA5BE30B3A8004F7BF005E96CBF891D7F18112A3619FDF530DC8AA64954258E1811789B5189B49B4EB53F5F89F7D37523894F3EB57B373763
310
C91E502F52CC99EB7BDDF933FC324C4FFC2561DFFA7339FAFDD0A4BFBE6D3A8FF9ED1FC49898139864602458968913181918F719CCF5A68B2EE9C1FF050E34E63107003B8120FA982C21B30A874E4F5E4B38D5A8290C4B8D9BE48A0BE31EA995BDC37AC6DE90BA17D259DEF53605D55922FEB1855D915B659FBEB350EE0DFB
310
2F9F766E1C84CC8964B75D08667445EAB966015F63A18A9E0A325C1B3DC628C0D3CB60F767FA93CC65F25458BD23C3B312716E5F40E5858AC06EBA9AB14F95DB99147B832069201541D09A0D856E12C629CF32683760EE855537D1901988D5EBC156676C7DD51D7207CF3267AF1D76C2AD867315E44618015313A98B19941C
310
696FED3461CAA9B5415F918556D7802EDACEFD6B2E45853A9735DFC9DBF7E440F9319F8B6805A973BCCDC76C069A9144E51F187EDCC12FC31B5DEAAF0A76137199B106EC84ADA6B6EE697D4E6A96E007417F4E880E8B1E89B4BCE9D81EF611E2ED8F0C1A6C25F620FAFAAB656A7C42D464880E8AFAB0E0FC8EA38CA9A8AEEA
310
EE3E4648BA4680270A89743CDD3E6C6CBF34B7B640EFA285ABC7EA0A1E28F3CC963D114A80123EE66D0AF7D5380EB41909B605AB4765B709B808590458157E69BA1378FEC4B48CAF6A730E3BE3C5EF2DD1A5EAF94B1DDE50CEB55DDFD7EE9A16747FA4B223359FB1FCC69E1194892BABB93A1D5C4E807AC0EA2E30180811E7
310
7A2291F6E7F7FAA5E0F60215BC6024E48DE436C511F0628B8CA189982D4D83CCA17D305A7E923C37941CFDFDCD93ACAF735EF5F0E61BBD3E6C41A59B242790D3A3BAC7064DCD89AA2E37214EC839820949D5CAA31E240D2948E48F690298974A96BA9A8432BC90F5071D6537C9666EA4564796B7AFFFA548077BEEA75F6308
310
3435074BA182F3699557397F71548383FDA8CA34D99B981E72835ECDA5DDDC151315173D05A21F651AAF8524E88209E2E7A737ED1045800CE3390050BCFB8BE588DF111617874C62575039CA588EEFDEFEFE319B739DE2EDC147092A262611E159650E787917885EF08F1F51B8F2D8A71D60B58B190FEF9541A1BE94BC19FE
310
A50784DA1419FE4B0FB51B8D36B5FF8E1286FD8AF42B91E59A5F1CC4D60174E764045FD8C57B18209B217F89A62252BD20BE0E63E12B8E8F029FE19E0E8D0870F58721A557082250D5424F7909369376E41666C0EE77CD87CB283F661D5FB6D0DA023CB67320A20DC7BE661E9E1BFE5463085C557DA1FF9BE835733766C3D1
310
39F2CF9E2208873AD0EB4814DE9E6BF2CAF81614D4D43906ED1C05A3265CABBFE192770FC2F64F940CB6B17B5F166F133C9AEEAD2641807C3E69515171DD74C4A85311513D6EC9530B3B601B6BA3EBFF3B5C3D2F7D69765141E345F75433953D013ADDF8F6AA7DC3F4A7563FE5C7D367937E2900D7EAD0F9FC9A4A1A9B5BDF
310
1FEF08532660C01C5D6DE22199AA774383E306DAB87E301ABB7D213887F9869D4942D0D71E94B27EDF216A318BD488D45DF84529EF575AF3C3938C0AAA0215B01994153E2054A0B894DA5C784980633AAD48576957CF4AEAEAFADC7C587368551C73DBE1E57C58AC713303A8BFC258BD04B51724459FF9E24C03A81E0E0679
310
CEB9B348C0DC998FEB9C6D6EFA77D247CC8F92D3848599ED89A23218D0636465AD1CEEB7DC140D7426F83491C4E8E8281C2FB35240918FFECE880CA2A42D70E8B20B34DF5221C7DB0CF90ECCB9C745B37A47E9B716FF7A97B7A252C1F3814DC7B1E1A7F72B8751D524EF7CAE45B0C73B3BE7D08ED39781B380DDFC9AA4A474
310
9C9493DB5BAD07A6EA6C092FBD0E85DB004DF06B8C9D3089C5320187E4CE1846158C7EA7DDAE8AD9AFFF21AA3A1026BB06A259845E8232DEE62811A4DA9CEAB3A4887320B76E2AE5615EAB7BDF738CBDD01F1E64064BC13D9EC53576751CA8CACD58B3CEB0E6CA585BD089B2A59B9FC101403387AADBDBE70586B93D64BF3A
310
D4453EF9C3B6A93817E8346991798601344F79A83C51F3D50F7BF2683A3605F51A72449489E0EE6169C749C60B1035651103AEE24D24E51A759C840DD3FC6504DA6FE107510E447B43461C79D22970B75DE5E1BD3007D1AFC619A4A4A69B5626AF5E9B8374E20677F77E2F8E73DF868E8BEC7EBA7B6A75EEF7205E1AB9486C
310
B642741D6E03FF13FCCEDB1C4AC129886268B01CDF4B124AF797CF784F3C6DEC97A17D4B558070A0F1C04DA4FF9BDBF34159AEFE958479824B3F58EBD1E19088A2AFDE501B6F2052368A3FD0E650A179EFAB1561E1D27527077136E652676C3670F42DCB3352F48F6BC86D2C3B0051727E41A0A4DC6CE2BE9D47F5CAA2935A
310
3C0539AF080665997194ABECD723B08129CC5B6B21D2E7D54CD4D12610E7E9FB8306771A89576C7A982002775ED44F3F744CF21EEBB27A631671D921938AAEE3EB0D19CD1E083727F607823E817BF599DCED5394E37EEBC2E88782E638920CA641EF74D4CDFCDEF06F4278ECB18E31E7E9876F2D783C8BF429C75395F57E98
310
C2B495A3DA077EB3AC3C158608B6B57FE3EA48484D9A480096FCEE0DE880950E7E5A5714131C5C41AAA29FD19AE81AC145FA1B9E85C7169A5AB837B213493DF7E9AA4B5FBF9CDEB36EBD21EF1181B7CF7366AB2A951D01E37AF4EB835D1BE8C117CFBE7625D2EBCDB0B20C5A4B45CED0BCDE3EE8DA9DA78C2E21DEAAFFD119
310
7E463C33CC6A80FB785669B856EFF7A8CCCA2841B5A5369173320B1170C368B2748D81062EA0296E5E2D95D7667A4A46D98A6FF475C76AAB0A8C8D45E226FAFC9FE0133EA9F60111F99CA81ACE03A1D14C89E8B0D69079C91464FA1D99E651D0EAF606F345C42A8A1AA9BA391031582B96D5B4176A77AADB01F12FD298A75D
310
EEBB2C82F0B8650E880722F8DDD90C56A7A058E5FDEF1AC93545BA27367C76F5D8F9690CB6F8DAE141EDD7971F0FB548A2AE435F224D6E5954CA155512F7332029D5A1230854B79F258EC5FFDB09F5F6343A8EB193229B7F7E79B3E48F8E183860B38C8269D1B53738FF1E0BACF6AADA6D4869E9DE708E79B5DADCC09B1BC7
310
6F649731CFAF59A83FD8BAE4C749D66FA87A3810D4D62FFE826FA400C0F325D2BC0F3CA35F5847B82A2ACC7961745C823E4D863D54460AF792CE6F79B5C7A33B25C3AEA6CDE15A919B6367D781E9D44F61BF828672594A3E1D9EDD6DF179A81F27EAC05B936575D73E05C209DDD2115CFB705DF9BBF3C911589B3640735E9E
310
618FC9C36A7326C82B2205E244C55D56FDB9D5DC93CE958D4BF8174D2B3DA54CB3C09F2C2A6DFF73D23B2197355761AD421EC581284A7EF8DE2CE3497C0C804D49B41DFD6A7360844E5BEFFB495CFCDB97A4595911CDBA623274CE852B5E278AF0BEB1770E9D37CD977B2766A7DED0E94B840E1E95E8C77DE5CB6354AF7871
310
427C28ADBEEF7BA0A28E19DE9ACD75F379FE373EAE6DDDAE3834692F9C2B03B4FCA8FCA9ABE8EEEBEBB725B88A7C90941E850682CA04061A7DF0CE82ED49BFAFFD42C309818FAE14755CAAE78B0F73243ECCCAD7DF58FCB9CDFAE7A4D3E6671A613639130D056C8383C8F4FCF4808C331E544DD26E4755D09EA05253B3049A
310
1E32587CC25D72E073E2CD96D04A71BBCB0038FEC3F53D254199C3CDC67CD66640269431860225392B2CB3ECD0B4498AAE78BA1994246AE1EE78F2EDFB79F6C6CB6B5E279C4D373FBC21CB2698C9ACBBEB6A4BB6B39E16AB0E421CCBFC7654D81ED86022F9BB522146F9F4772E2D0E4FA70120C95A85A417BF5078B232F475
310
4363EB1750B2AC2148EB46B1EA72AD9B4D23ADCBC589D70106C3EC2ABEEED84DFE28E718C6C83502C28E9FDD3B09DA0A6F6F7B72B706A31C9E2A331EE70DA56A083D2177BFD63C55B11D8D949FAFCF90B23A1E24B9B5018B9A17E99F2890EC302F330FE7936E2C23F0D237EC8916F5166AB84B62A21BB0B950146962D754F9
310
2CC2C8877BED8FC7B7B25726DD19545392570B3A2C66B58F027BEF412E552D12A588C4A3CC5C3193FCB3485EFFF700D0B9EEC077754A33DC1FB9E25AF814628F91DDFECB667D3F7690803F38D13F8AE39353523BB08FC6760144AFA2CE28236F65EDBB3D5F59A57D612B99E3D7E5F8A851666BF9B5A6658EFC96EEB37A378A
310
BB0EB3FDDF1303AF32C41BD1C8560745D7BD81066B0D6313359CF488563D3BA3F8E2185D1FAA3EBA1397C9D0E3DD232180A4DCADB6AF25DB3AC3CC26589C8239E66E81547BC7E2F328F9884764CA37EB5DBE390DFC03A5246B456A7C3684C4377D0EEF9A350680FA9A077E8B2957B489E09AB1AD41316944C2254B5984830F
310
691C93CAA767EECF976FA5647538830B5E63236A6F0365C1E0F3E327F24FE35EDDBD7360B0F7374837409F7A6311BECC12B7026D4FA1AE204FA3F5FE904B1F420C7A9044AE58E403E7C4848E7DA25DC9EDAC79DD756FAA26B9EA83ACE8A214A2612A22AFA19DAE7DBAC5F8CDE1292A485F98DAC731A29FE01A3966E96BCB9F
310
B5A4C8830E1B9AF0C54B87FBE221A097036E5D28D1F869F810C06A9BB0AC0612F69AEBAF893C6E7AD59460208BAB3A6B09CA4F6BDDAB8CF0D1F84B72487498395A70DCD754796E271099A567A55CF242BBED64696378BB6CF25EF0FCDB589F3A82F1116D010A9AB9FA4358809EE0C973A2B4229BAA876A70B03AB49CBA7FBE
310
71DB1832FFD32F9BF2C8E98075CACAFB36921235D0F552B6A67E94E094097A5D7DF681B40623DA535ADA7A9AD8E9A62407D7C9A5AE51D62A17A83A23728DE86BB56115804D3F2675F2C6B87541A0FC497BF0CA86420F558C9859EBE9FAD62747E323E3AADC03FDCDDFE7407B09DA90B44E3185723C5381EAEF589765E2F7A0
310
99BA46695BAD60CEF3491B8A171F5F56444F7CE9455312C3498C74173AEA0214EC029833B34B650CBB5A5508D5091665309642791708ECF27CF11DB3D797D6CFE474453BD4BFADB768094B2147814D81C7CBAF8228DCAF5564B5891F5EF6A860EB2E323CB82AB868D8EA048880D63B0DE5341F1B3D53297B928A11E15F25E5
310
148990F710747C3509ED14909C552EBE3973246FCE55D00564D8310BC3EBC5085D08D806799B77D6C57FDF5E55837F9E934F09C03C729271B64F12D0A9F9E938107CAF7BF1EC8CF1BB9B42363D33070F4CACB425E605DDB0A34A12BB936DE286B9887A4E2E558F0886498BFF49C311D96C277CF6A9FC0D75AD0ECC5226D7E0
310
E3572012E56D7FDE4410CEC7A6D0F997F225A2055B8B92E3956E875AE4993CB3D4C9063AF98FD45E1BAB165640A43439A2C9181A7C355B297C0A0CCFFAE19B6FA3C2BA238A885FBC98B8F6DAF4B94B97304878DF4D8BFF6A4AEDF79E90ED4E68F00CD7299F4E0D83E35601AF0CBEF18C1E870E74758FA91F5131075004DB3C
310
FCF09AE1DABC11957FD9808C92E8A678CE9DBE40DDA0E0D1D505AAFBCBA208232BFB6FB3704E8985E61ADE53DE74152F5C7DE74B1DEDCD37DC3E8FB30D7EBA8B9EFFC3606BF90B8D438279CB7709FC7C00D327F41817EEA71CD9E49FE9C8C9A81C70915D9F0F15958EC5AA4C3BBFAF46986B90F188BDB24B89DE3C6F29EC3E
310
6F66D84856EE96A35E657CA41B41EFD8DBFA16AD6E91439EA92B40B21C053249F51AE50EB0B24C770FFAF40DF12C8436366819C48E36547D4E7B72FE2BBF10828583057814A668BDF183F6B2E58DFB151103E56303E63D00F39C27C4661605DB644D19175D02E3F0241E8FC3458D17AAAADB117CE9EEA690D0DB01E634878C
310
04C2C9310B69FCAB831151E3AD293BEF6E46B0ABCECB50F5939B39C613D41E81FAE8D34CAE3C4566B761D37185FE864AC32FCB71AEF39DAA5BAB88609BB980CD2F07A8F941653B529567726E2B2A58D079DD57E1E5E31426CF184A04D7B03B985F276D47406AF276FE32E3328BA866EB1FD39BEF57863A317634AA5FE46740
310
9B3873F5069EF0D71AF00AD189D17BA1974ECDB2D623E9E14086386A6AAB5807825C37B015BFE892AFD154920EC437EB945D958E18622E1E0FE2FA06557CE4BB9BBD05A2D40E774DA2B65473791E314B7D6C886820B2FCFE4AA272B3B8B15E7344A145E8AF919B5454D89D36D413E87211186BF6F645E5EC94DCCE8E1C7990
310
22E4EC9BC86D7A0F2AFB1FC4B2CE48F84B3F49ECE65BAD24CADCC07EFF39AB06BE9E6B27A059938EA7208838455383DDBCFCD967DDE4650EF92A14FF933C975DB20BD7FEEBC4487576485963D757D16340D9599FEB362F775F38CA4185A86F74B629C81B133644A3B18FD056E997E0734F9BE26D11C0AAFC669E2AC9FC41D2
310
81F8B2E1C35AE27BCE05F3DA295488096688719D974DF1B5D182DB7792288697F8763CFB43562C1CDEE11C4AABD5C22B6E33F6F389CFC3477C5919DC0D533F8A7A1846B7ADB60ABDC26C43D0CFC8910B7C15EE22675BD02702ED39DB77A87A192CA7A543E6205B979B9F5A6B512A3CA799E198B2D5797C0AF8D1D872CA455D
310
4D431A7879D4DD76110B5FF7F4176B54477A9EB5E4A5D11214FDA585F0382751D8E2582BA5D2075053298FEB8F1537304E32CB22C2E2B693DC0A760B1DFCA751BDC445AFDCBB12820ED85F6D5298933C7EF1211E9E057684056CDA3FEF3BB6052355E162DF27C59E965A8DDB7F9437EB72CDDA3A090DE65A5B2F50326247B7
310
EC67B73ACC7047FC9B353D6EE990F772207C6EC52B39DC2F3C0754821DAB559F7C1809C7D0DD5B0499D0442E0A6E391B3D5DB46D11E731E6794EC77523FBDAA242ED67F9FA1FB684255671F63C9BCFE6E7E896D51001A6113EF2298BA494E0B0980D1FA5B9D60796554C02256B1E0345FB7C6186B6A19D2DCA270416262845
310
FA4F42DB5D9B0A0B6F07FCA2E56C242522E001E0CEB734AF310FC8BFB57E38E03AACE93B3326A2197891E68452B26A6307FDABFEE0223D3C03C3C73D2D5BC054C8311F12004CAE488E5C29287F8156A2CAA4AD0D7BE6B97264E4139F437CE73ADF52E5134C52B819777C18B323A5924E4F67AFD13B1CDC3A61793A79FAF5C0
310
CEB718E441071E797C6DCCB9EFCF7E4A1E9F3DF3C2F9C9E8294E9586868788C972857FB0556D7A26941A7EEB9B580AD78EC40B85DC906B4120A563CA3B87797ED612D3B035962BB75F6515A393F4CB057F564CDF54F2E5A024514E6A1F901DB80C7E70B1FC05E356A7E72FABF4775B3E3FB8F70A2A8E7B6A94542BB3041579
310
78CCC999E707A29CC795E67A59CC546A5D47B368954CA7B6E75EC9E1F6FC73CE3B4F71F8CB1A6B15923D61EAAEB14626AAA9D04A26EB9C66CD1BE86CA31A5D8703DE04CD1EBCE4F5CCB62F93909AD11E55799A781A956ED27D3E738F4538CB04ADABC7DAEF20BC35BA6A90BCC1DC61BA05F20D8832FFB9BC9B15E2DB838A0A
310
FBB7E0C82A562127E0446894F427794C3037186F622BF24DE1B00AA10A23BFA47B2A180D6DA5AD6F7326FEB8C100C2D7142EB2A0B2A9D1008A09BA343D70E054AB69E2A7EDB783CBD92537FAF4A44D1296AC2792729104B3276C276C951D0CF3CF3F1E6B017720A7B8505A5FF9589365979678C36F1BAF759EAF57C60F1FF5
310
FE9DCF5F8E764FF25A2D06CF25117A8FED51884C13B2B750DB0E4F5E3D64124FCF11F0AD8F1CC3B3DA4B38ED22BF1CB2585EE6BFEBBA63FBFD44F9537B9B37BDD6B358720F98A8125AED4349CCFEB0E135F19E208A04CA7E2B10711185D72E381F448036EF57C9F874E54A971CA37A639E986AC0226DC5AA00D5B14FEA9192
310
234B3DE617814FC221C92F33F1D392F297731B567FD98FD91D989379AF567A65B8ADF177591DB90FBEA99BF4ED11B16E50A0AB1DBF1156D034BBE04D69D08F939D8E92BF525A1DDAFF80ECBC95D8F45D3FDD289FD23F7D8B452F8EBB34EC082DEEE68E18EDDF072060FAD2AB1504DD4879BF67099FC58F6E9DEFBF645D1633
310
4A3E9A127C6F1AF6132CF287E433B43A0EE93812B4AA0B194E03EE3FF91EF9C6ED0074A2F6EB18A96A7C9890B1FCDA1F2095E944DB911ED54C60DF16FB74C8CE9BDC7C54C4F14078CF73C2FFF1F1BBCCD7CF64F71407EA1683DBC410D226627F66E509060D5C0AFD611DE681D509DB8DD12FB1265B03C6F5C55FF4C30BD941
310
87FF692B4F152982502F193098A789526A038AB529A52BC0DC4FB6285CBAC10A8B8DB75DCD9BDABBB221E27D1F8DA9F5EE5926A1C8AA9BA9BC09239C6A7F12914EA3B59EFF7AAEC3FFCCE56F1C5C2980AD072793527565E774F4631DB178CEEC691B1F367BEA0CF2907E1D6B854D527065979DDEF002D8B2ACEA7CE21AE297
310
737EDE1D45B31233B73FEA35BCFDD0B09721FDBAF6432681F2FD10C3E9EFB246FD6E854B344ACC9D8A0EEF876A7314B49B6A499FC650B099D650DBFEC7638ADFD245E2B7839DA5AC5F7D5623FC0ECEEC8653FC9B2BDD1AD4D00A566FBA7186DD3C9CD26512551637498CADB950FEC71ADB9A5524285DE328B8EC7EC75D2345
310
AEC6A27C42AF6D9B92155315C80DBFCABBB7DA0FAE425C4FB896B15C9BFAC4FE67DF5A23D30C93DA4D8F36FB15D100050DA6062E22AEC5F4DAC4F6FEEF97AE05DE63C6D38F9E068A20BC5E3B6BCD75320C5090924E7F93640A7735B1A43451C2D91EE62C6238B797349E59890AF3A520DF4A87095F3ABEC2E61F0593416CE4
310
6CDCBE0E00E2523FCCD04408588B5B6C9DB6459C786CE378770B54F51DA3A5E1DF2A3349BEAAC234A6CF8993B598B3B25B4B113E353A4D750FA7534749430F3EBF2512E7EA3FD43C6AB9A1F765A58463B306721A15D224FAFE8C6F5E3432D57EE697DA0DD5A9D4866A8BCCAAA9DFF1F06047851408FEC060471D0E3EB86BFA
310
F46E4B5E60311DC3E3CEA147C75CF971BE74689507154FF2D2E92F15CDB2B9182B11459FD8ACAC5A85F174BC94A7F4EE4C4F5CAFA7C02E37BF0BC77B7DCD0C047BC316F562A01A441AFA7931CC84A28CB9F4AA367EB515778F29BFE61195FA671F4352E5E46E3A64773F1F76EE5EB36D7BCE9BCEAD837A4D77F8DB8C92AEEF
310
6711920D7C7D0F76B0FD0EB7AB83724CD35BCA7D36DDDF5FBB7FF6F04A91F3E2BB3B8F1A43CD659639507FF6331C5F697BCC782AE57D757A27D97F1AB9E0AEDB43F92F1B2AACDF5FEC8ADBAF9F814E2027003BA2F9E144B1938A7A04050AE5D953B82C45619165C813A10E76DD6906B3C16438064D14CDA713AEC420034613
310
E1AC7241904A49FBF87409AFB1FCB9B72FE7933A87D8FBEDACECE4EDCF6A4FE9FB94D5DEB74FAB7CFEAE17EE965DF980DCCA2D04134994F9A2E94D2265DA4FE6AA7B7AC15FACAC2B5ABBCD7DFF542C5314FDAB2E1B9D8B65220B8E2B638BE008E8DCA22678C820C5053664D15E89F2D735B51A84955E81A443545E9FF787BE
310
0FA700A76D136C27DA179A7C6E8939E01BE756E19CB292798063D8B97F44E8A27BCF3A614FEB8BE974A718E86F7EC99B53CA35FA24F61F2B07266684623A3D4CF073E511F3A10A8FDAFAF0078C577F4DF9D339FE7862E5FA47CF4344209E5BF76D783B1B48E152AD281B15FCB934DCDA49CEC5706B1EE8B460F435324A5CAD
310
154725E21AB8044B75A557A79F6C807B9340AA3D92503E866F4274412926C8C504E4D5EF8C0E68DD0B028781A6B4054F11CF18941F101C57CCC796773ABC8DED9CD91FE5788806C05E548895354AEAC96546D55B0E94A59F148D061F42AA398D822CDECA4CDE79E13469BDCC44FDC990F366BA5978C15F97ED80CBFD73B0CD
310
9B8B83A4F6845BDFBFAF034019473FB9A63BD55D3A4A7284757071574029A4D016DCCBE95DD679EF3C4880BF169422F8C89B68A988D2B13793CAED4F74DE7486C72DC94DF46B8E93D8E02EFCB1FF9B3BA10C8AE7F653DF94F4AF466CDDCEF5776687F7C4C14B63E4EED1719DC2EC482D7DBCC7AE518CDE3D5FF86D39000EC3
310
673C0044E1D308BF05F74D1B5F033A7D1BE7F74BC55BBE3E4A20F920946CA0271EB17BD2B80E5660ACB8A29A79F5E4BBA49D4D945B6EEF4A7EFEAA65E5555BBB57A7E15D2F83C69F30BBB978D2B39F1F26FC097424D39BB33CA3D87ABF64E307938B685BAD44F71556A30B7E712CA4FE600613C3E554B69ADE949A7CFE214D
310
F1FFF05CB82151EC6FC31950239F94CF7AD39DC473F6EA356E5EC2C4EFA04383CEFE985A127484366FBEE3C0EC4FEA363E4F6632AE781392FD45D67B63FB8DF70E82734F431FD3443172A0E30A83D60982D55FA6A2CF86DBA8382502ACC6CDEF3B907982EED1160E14863FA242F9757347E1544275CCDCF71ECD5F8621CBEA
310
326B8BA884AD7F825781923E66971F04010D574C541D8427A438A37EEF8AF88240EED7362C953F5A81DE2D56109CDE2524EA0F5D2F87308C0C47BD97AD605878AB8589E17CA83930CB5E0DCCD75853D68B1AB136594926DE426C367428E9334AFAFF90ECE221BB5DC9E5BB53D2CDEF954EAA9CD814F0E5725F1965DD458E5F
310
8487683AD86B9D0076BE3EE91EB1CECC5331A67A3F79D8B27587C12EC2A6A70474749F27B4C0BBAFB94B34189E88DC18964BE4121B9137FD516C7755356E50D6714E31ACD222621EBBCD1CFF81D87479056A9DA0E0B8EA19D24CF937DA89F78E8650CCBDC110AAB6C4E46DCBFD0446BA9E2060E81F314AC2031E88135E5476
310
AC0160EF5C0DD2EEF1B8B5CB2D198BE9A554A9093B5F7D7E4B5407DDFCA1D9C152FD97F55BFFFDFE802954DFEC8995B983E28AC92F1971E28F531DC407A1280EB125F64A72E617EFB27DFBCEDCDA2D6F2BDADA36873EE46B9BE1782998C63DA7182BC383FB6FD15DA472B175D7E8B4FC88F38D6E07FEAA3FA3CBB8F6B449EC
310
F14D2175E5C5CCA3A42ABF24CA6C9395AF74535F4DDB38CB84F56614B0FD32D7E19CA5CF988DB4449C40E23DF2B16772594554579094450F56F253CD25EA7F77366FB1CFE79696C428BB64D5A41E986189427E5E4D7E2DAE3D5BB4972B3DC44EAABDDDD63A2264ECFA5C786EB0EE1FDC5BE34FA0F08376869FD1E61EA06CAE
310
15191135445EE8F0394161C3266A596AA035572BB0C8876180D8B9C77D307DF9DCDF7365ABDA6F3A2366436457A4DFC1F259666569A9E4A79C817BDD5610E5200FCE894A358EC72858D50EF67545DA81C6FACE3D457BAF70367E1E6BDD9A952FB4F56247F58F523B97E640246051A72F79BE42FFA0B3187F63097F91C48B86
310
8586F714B0EBD5A00A8412C1236E1298F60C72BE6C96B82B404CADAA304AE9F303176B14BA53FBC2D5E86377E35542019E24D97B96A49B2C0E5006E7795954DEAF5DA58958839043C6C70BD3B1B33B6DC5C31316D8A6923F142E26F6711A2258AF977DDF1F970ECC4F1F2B434B96D81BEB6E89BF3BBB3C7C8CC80505070723
310
D6D7D7D3C8CA27CA164A26024FED94B12A86031867241DA53D929636DA600F050BC40CE48B8BA03D69224720DEE2ED2127390BDF5E6EA64527BBD4C4C63FA76BB801FEEC0E61218EC98A8A86CD8313781617877E66692839B9468CF4DB8E50A73986E558E309C0D6F676F921BE02F1185454DC75B111572FF9D27D85EA14C0
310
5AD7271225B391C4275659CA4A43759D0BA44639BE4C30A84DB7F67A41399FB95CBF923B1B1672ABC807C1590557FB18D811983FA97F5E609516D62281D38B1281F68FC75528C35E4CD7DF0F7DBB5E5DD69C414EBEA2F4A5B241B996BA77AE6C772E367408C633EA3E438B68563EA8BE7667F3A4C4FDEEA52ABD78A2820F44
310
3B7914A15F180018D231E64519C56A12F6CA7C8DAE18F06F6B769DBF92329EF6A5D18FBCE600F36BD8E8198DE5CDAA96181F3A756EBA5501CEE58F497EA4F418A2B82565B9BCC611713C0B708CCA1F398B78C5F7D03B3437CC18F13061F55C7BEDADD5ACB1DB0E36D3CE47FF6EA1A563A57E9649EA5D14D1A50EAA45746338
310
1C073777EF1600607BAF6428A7DDC079D47A204EF1E1F1F0589FB054D45E02CE623B3823C317C601E589E22B1E88B448524B86A82828E32345EC18AE17214B42F8C41C6D428016D9BA31DDCB47572561E5A402E5BA4FCE55F78AF7268524AA04130F3A20BA5D1E9F9948EA48FC8F5314FDB35E21898198060034ACE5E3E2BB
310
CA34092518F275190AF65F45867FF0900AA4B81F25427414C372BF51DC29AA855C5428EE1EEDD6B849AD60F6E73475C2D2523F8A2772C840A478DED18A8C5C91B085F255DC4F54EA7AA8947354FD17ECF8FB3B4A0DE7B483CAF3A1165EE05BBA413E5C1FEF3DE1D6B8F2F3F3251C17D9FCAB48A9AAF63AC773A0E413BBC46A
310
9ADF84A566FC920E4D8C52C9769EE3301CADEEEDD92B312E02E2A7E35B7F1E7D203FE5A7D75578B06E99D0E46FFADB8FDA17ED8880390DA29094202D6F645F76F6F96409CDA05495A96E84B04A00D1A6C6C81D7F3DE9376E828CCF144EE50E364ACCE7237EA0BFB5607ED1AC3CFE73794E5B61739D14DF1743441B1AC98F00
310
ECEDE9E7301FA29755FBEFA68C91EF2B314CF510537EF1ABFC9A762496280B546F5EDAAF8A5B387D469FC9A878A92828C88608453ACEC6094DCA54111E7AD5B2663DFE2DD151B7F123B9F4FEF8EE36AB125FD7AD52A59B1B765B3E3F73E3F73DEA93875004D2AFFE3CDE9493B87A9904DD052028949041A91DC0E1BA47BA71
310
4343FD5B25E0A6A09503AFC17C790058A836A324FE31D7893512E28230332F153181C1E018E1124EBE1BA262AA428A518237D1EA7275E48C5C561BD19ED6912EDD8367DA0F31E40EEAE9683DA9257525AEA7B632B97119E17145A90231768A4F3B9120FF32E8319B015E3CBE26F1A754177D8185345817C096B0CE443A955D
310
13AC15E1FB5DEEA0239EC32A3C92241A237B0B02FFCB4F93CF2B02570C8D192E2F2A68CEEB42F12E6F8CEEFF46C251E22B4341C56FB08CCE550E7A9D6F4D6564B9EA52A83D5BF2C6E03FA19D2775E15A8A7ACF30A13C259EE7F5EF2AC3BA354F1500E1A07FC63FB4686E2F12EC69719F9ECF5FE3F35598DF2CE944008CE78F
310
0911BA5BE5D0A34E0098FF038669C26030BA9B300303039852A8F6F496341737CA7E0D2E3AAA36DE0A70AA7D9CA0D54D9AD84B18A44C9E625475E1C97B93BEBB38DCE7D227E67A2D00F531436136355F243D1FC0D712C5765754FA22FCFFAE97919161F46D6E61ACB37D83777B385889770B50765B127768443A5C4D3A4E35
310
A3151111F146B7CA116F918A049F1C272F2CD7976C69A0068773451659A97E0F4A08FE604C3FF6CE7385DB19F4D3ABC8A0D80DA8A42096AC377DB49382B36E270B6FA7570188B4B7D1DDDDA82ACA487CCA5D38BD3BD039ADBAFA4ACFF27809239B722081E2EB9F145320553D183F28471C388BC8814E5045676767AB58A8E7
310
2D1CED2CA731379515D2E533E4CF0B39DFC625F97AC4836831A4DE330E87A8126FA17EBE583D614E71E22A8DBF2825599743E0640037303E8E1B1E8EA4E1ABFA4F62907B5E4E0E5DCFDAB417C36C6848A2B8D15F1E505434C0707E16B1CFC2A1C36A42BBF55734F8F4301DDC2A5110CEE8C0747F69519265012A2174BF4E95
310
5ECD4FDE095A3ABC70536B7AD0B9D7892F81287D667C108703C9B66A221E9A0929D030008F77FF6F5D2108EF5706FC87A3069B976F7C9FC3239D13D283CDEA83597461079FEEE049B0F392889898B7D87D31F8D60ED7B56B91823A8E4EDDB36C6172ECEE42BD42B12CD67994FA0F0DFAE9389356F4CD4425A4B8AA55CBF7EC
310
D585C6A2C2316791E43D5C06841ADBB226A87FD61515FFBB0167B74E56BD7F3E90A57A97FEDCBDF483A0D6699A8C0849CAEB4947FAA90D8E332D9DEBD9F4738C37DA0CAF9CF3DAA68BCB67C420459C7A64498D6E848E5CADE92BB6901F607AA331104A67F7CD650EE169B1DAE94D2C31C2F993632259B6957E246EFE4C5481
310
107B07118607700040E5812A2A2A38DA0076875258C753F60E0F2662C748EDD5F3F3686B8FC3BD6FE631ECCAA1E8B1C1E565AD117E54893E79F4672E32F9E46B2A183DFDCF3EECB4D4D077DBEA0DA254D256045109670050129E9B9B1A9E4A11344D61497A992778095151510C4BB7EF2009B63AA4360635312E4CF668B7E0
310
D3D85A8688E2BD83B569439892ADB63461930D428E0DE42E4AC57CE48DA5CC1449530D8BD3D6A0F08DF20C8E8F570F2CFFFCEA286E30969B4654D498A58D9DA782E19FE3F002181838925592C4A1EF0B332D88B61A92C644547BED490D3A42CFFAB70E36D961F694F6307F72FF15A1C79D5B1B5CEFD353D9E2B52566DEC8F8
310
F09CB3E8359C0F68EBBB7898243E34E12A015B2685AB303C04D3A9E00671FF3DFF0A184E4A2ABEB2B666AF5B3A209C73D8EF29DCDB069C9F391EEE9DD0F74C7BCDE16F8F02E3B8816122BBEB50665775B600549D8BB33A54A6BF940C028118BC6878C79958D6784F9DEAA6E26748386FFAF8D0D0101E2847B6563F5D8DC1D7
310
8F787BE00E2C941AE12148D4A81599FE8F68D4DA5CDED75530ADE138240300EE13B0FC13A1687FED6774662C05A2B7DFB186732F0D7A93545D8B0A6390AE5054D9CB582DA846D7A061B3358B45E2B52DDE63E114397EDB7E09233A579155D795BE76102CF277F4DF8B188C4F2879BEAE3C08347124BF9ED23B128259FE107D
310
31E34A652F090B30B39E0D9AF917B76A2806135621A8A60681F16AF216514BBD02711585B5B1AE823F4B2D0369EA5B6BCB863072727FFC871CA6C9AB79A814D989057E9470A3D238BC87CBB4A0EA49AFE2B86F22E499793CAA9047080450166BDC357524561E258C77CB697F1ABB32562CF87C3B7AA12F911EF19FB3E5C022
310
22E887D08202A60A17151F5E053A86B437771088B4FEE14D652C43E8D939995D34545E12E2FF93D4E366EAD25F10CB7DED141563C3D0C447AF06078A91135FD4B9611583CB4BF3BD167F2399CEAB0E0100F8FFC305F00F1711717173138B4B48C83022295DE657EFEDD97F238ECA80F528AFB4F8D67AD4E2594B9A3AA86D74
310
87EFC313BA95745C186F0CDD84CC12DC9CB0424B42203D351FD9C0A3AF10CC7F388E0329279087386421F194F4A29464C1DEF7EF8BE515E4A199DCD5B909342598D8FE6A231F71336248D5CEC5454455C7BE383B3BC7B260FED27F703FDC39A170F3827239102F59D4DEE7FEF82EAA1A5E4BA94DCC4CC44E7E2EDE20F24244
310
E4454369D2E87C3F823F193FD4FD27E1C23984B01898D15ABC20711A8A558054951A6AE280096BA36CBA439603B7B0B4C45F248C14B2383B4B5CD8ECECE4FF859AD4A6CA2326D020EF090F4041D28DB66E5256B56232CC52829DE8060BAE6BBF37D4B7469B822454FE93210A3E8D15E69FFCF01123222611C51C4FD0A041A0
310
CFA2471CF6BE38D2B20FA4C3525B5B8B586759475CF80ADFE67A284AC24651E52B8E683D24C2622642F27E7C3C22783BCF63648BC398BD6CD0D9C97E7E7E3EACB6126DB7A6C1FD9F1031302EE67ED96F22B77C7CA0239BB324207559B105E4693EB26EC46182A92C9C0DBD24F29B31C5C5AC1F84300E0E17CEEAC15F5736FA
310
4A98971E2F1423BFCD68D4BBD5F86E74B40A369F39507C88FCDB35D2DD8DEBEA4AF999E23CF2816D204200DF6E611781B9884C1AC8888B4DE397320472959434323A5A36B22A8E1F721A270DF3BD65E4A31C11FF048AFB0D8B7B6881423793963A23CFCE935FC189ED36FAE35C46DA3574C979E4394BE52084F3081837BE03
310
3396D2EBD80F1F691B273F660D2B32FA27A33B1DE4ADA5F0FA4651511102DFA410DDA86E065272CA314D5249DF91B06BB92807B28EFD54F08F7B525252782CD276DD02E6B0319B13DF87B1F6361AD6B28FC0D711CF445429B9E5A433CD493051C49A9E03DDB1B147D880253514A5DED88009018620EE229101C041950E2D8A
310
A8E1F5F5438E0C0C0C60EEDEE9E3E0C051948C69F84BB7B2A48A1F3C8EB9E6864687F4F4F6F6E2FA87608ADAF9C5E117B7C1A737E710769DA1D15ECE6A84502AA855398712D5FB51BE92E4EF824969CE18278798AC303C2C7980DD2500ADF8FB1E6D6C2FAAFF9987178923334A244758BAA01A9A1B70FA5097D01E1CC2A58D
310
AD0EC94CE6430AA9B0C10D75E3C6BAC670EFBADEE1607739CE0FC18A2587E3EC3058562014C64219C69BC269082D5C2F4A659278D585755912176D78A1B641719C2A394CED495A1AC5D583FD2F5EDD93308EA7EAE8A6DD396598BDBD3D4CFED62D18A5BDFDE0DD5C80D1A89BA62697B131AE7CE9A6594138582F1B37D68F17
310
49AC7CB67A70695D48A4A056AC1FBD4E82358CEAE38F54B95A9016F9000F9879C0D9D131768635CA798895F27D6F1614F11F2838A83611AA51C9A3DDB539D42979C29F10465655C17BEC3E2760B80DCBF609198C7B171A531905F3EC218D696025975E986C6B4C666666787271F202805577DD5A3EF0CAFAF91B62DC4B2DB4
310
217A7606282F31D8DDBC290593BAA93EA6353AFA9939B877978481E15CFC9F2755CDC00C538F63A4BA3E80AE009B73CA0185687D339A507D165B74290D6EE46D5C58148F020C3668ABE9EF2F7549170DC80DB41FFC1D678FF19AEB10C7133832B104B80F691B3138F97A92D26E551F1F110400D45AC71A9B9AC41A1A1B1DAE
310
ED0B0810638EFFB511D46B121C6FEA0F38CD00E03CFFEB9713FE1F9C263E4DDEC160D0497FA9A132BA608584057FB15380825DE6C7FC3C667EE947D488A09898D8E939C4953BF4EC9836344D2CC6B2971B2A21A572B06096F4982D2CC7232D46E8EA69DC83722E267754D777F97F96D5DA74E1E75178084D0E70F12AD33E5F
310
71EF2AFA599B2BEBF60A5BE475F444F240CBFE8143C334E7ED9150FEEFEF7EB020C4DBED388DD1D6A167A76F3CBF119B578AE8CFA7736ACAFA4440A1C47185638A0D2F3EB5BDDEFDA958FB13CE4AA4923D5BF840392D45544329525749734866684BF7F8D9D54D892E19BCA9F829A0F8BFCBEEA6CFDFC61D74EA1A645ED7A1
310
FF241739F15694BD835B66FEC5677E40FE69BD3F91AE402F036537218A401CB0828604AD189E575015C6F3F6BBC8AC79CF6C70653847254B31551EFCBEB5978B9DB85D58D0FA41A9DFE9C624834AA04949D24B5AE6D299E072D152D12097920F14AA92C31C3B97E28B6C2E6E9C23D63043ECBBC0A60FDF5BD0C33C127EA8A3
310
308B8B6AFFEB28B4455BF6E7AF4FC6222728357EB8E46E85053E6A8843AB23295BF838ABDA94658FEF3F832F147046B4ACD6F7D48E8FCC9618582961C898D1C7A253C91BFECBDA6BA18A1FCF70755DCCEE2222F41B76D23CA98D0CB3D95F0CF66D57FFF65E2A90F5DF40FC3187621E981BD0BC1D992787212688976B94A8F0
310
C6EF646624B570B78E068826F87CE27041A95C9A4871FF65CC17FCB1639629AD6A9517000D63AC231F3D741CB8430777E7ECF80CE7A3F73C0F162F7E56AA71F4DA80A33CD6ACEE78E2C11FAC03DAFCE929B106F8F6B3ED2DC71FF994BD9CEF4E9A94896EF1B6E2B7B4978168BCF0847A3D2A4F1B0500B926E634B174548E9F
310
BAD27153FB5FC36799B1E6C7C38A94E1F9E996796D7B485E635D5287A2AE76FBD11A341DB3F8F810385BB7296391973DC6C37C452A9305AEBBE0CDB6C566DB59FE60C8E94B1FD090354BF51439FFD1B48D725228FFA88C84F686F547107A7A235665A4593B7C34D748C1AC8D56DD5DA861EEFBADDECBBD65117E65851F9035
310
1AEB65F0EFCFF4BCFEF24CB7A5879699FAC437A7AF9099186CF006BB923A59E37D7A36A29FD8D2CBB914A5E9D0A8FD212FBF796AE9A67958FF1D5D8B85F78F96219D4714EB919929241B6C018AAE0C02069F8D919961EC5DDFBFB7573E3AC8E08BFB7C8534BE6DE045B3CD63DBD71F7638BA2309CAE398EA3A7D8F98BBBC7A
310
EB367EFA5CFA27A9F8F2F52FE878058E6209C026453F8E7E8A237DFC389E9590F6059B397CFD65183BBF936E86896612A5B5FEE49DAC8455D026218AFEBEC12B3523A45B57B82C9C97E02ACFA1184DB18E48CF615DBF39C3CC6F0B4AE6BBEEA2E39D944E290302FA3DE33FA7E40296E2EF7BF1CD855BBECFAD0FD622BEE974
310
6FC4FDFDE545AE6E3BC234CADF83A0FB76DFB145BF3828AE3436368AC24989454F8FF70A177672C711CAA1A76107218CF948CA01F873520E7A2B118EBB161ABAD432932029628B6761590C98AB590C8C8C79798CE9F715BA696E839E9131A4BB68BE923F1747FBFF165331FFDD4D05997ACD168F12CA75348DAC04C7F509FE
310
83898A8B421181AF492861CE81E4A2DD0A30850CFA95E05F097FF70F9E777310D584A75BA7018922E271DAB1D785671157685B7D383D3E074DDB4F1E44EF04B07BAAC75A062077C54B9752C738C9D804D402E02851F3F89605AF189738C18C021D2139EAF72513824E10DDD3047BACC8521ED7E98B257D1166903B1B08FA6F
310
918FD7E162913FEC7D0EF4787E29C35FBA8C6E2C9C20E9AB30AE42CA2A01A090E7D010C1B5BF9CEE2A304BF3A987FB40D836979B79E18D70F257DA61E808472DD85B82761825779D6B90CAEB0F23360C6F80A7D7D77545E95B3DFF0CF96A827F9B5BCECD2C9698718417EF80FEEDEE938AFF55859D0D540B7FE09435583A6F
310
04874A0C7E8CF234DF4879722000167F5872CEC6BF3EF7E5A8CC8121E6A359227C8A29C95212F9F735BC72A887D56B8F309FC525BFB4FD767AAEC4AEFF249CFBBD2DE1AB9969A6155C7D8DABC307E47324C1F916C7BCFF40ABA5644E9FFB9238D19ADADA49D9610F01ABBA57E4DFCBDCCBB2B93C8953206C91DE01B0E2651A
310
6D6C31721915B31F7B7CBCE55466F6D70402788FA91D73BE4ADCBA99A35F17D6B83383704917D6833F0FA3CD45C926ADB8BC17999A4A0AFBCE2541F7B8CF4C2F5FBA611B3E626D64407CB32C122DFF4EF8674D6EDBB86C8F7C6A16D50FA685E2CCA34F8F7D1D8265BB0042E9D7F1F666F7BE5FAA5184DF58E12122A42EF02F
310
461B3F369AC746F96528AD208512AB56844CF75B97F352DF7995024FB02855385854F3798670D01CAC771AC3E1889EC25F61A20C1F8CAB46898817F9C47E2CDA1F286BF2F358298709FE567C91133E2638C8B53975E753EA8BFD3578B5F7186B7BF084EBA3F77BAC3132A5779902EC22AF2D2E79F42D324E083386DAEE9810
310
D1B44A5DAA54513C7A71E52A4AB9257D975B621308FE4D2141CC3DCFE946C154A3C1DFCCA7629EC69ACFA831634ADDA93C0388D2A9A2DDAFCF957C6995BCE7FBB6DC4EBAE79E63EB08E9A25F52F67076F7093CA545CA3053B5BF576DEAD4E0017143C5F759F32B2D6F145B52B67B48909B7C7FCA6586EE385A2189C16932CB
310
6DDFD9152AE317C430492A578ED27B72D85D40C7C93C097939E1B50F4D67F05334FE9DC362C30B7FF561B95259138ECFD9274C8D695C31B14D4EAA9F3D7FA8DDF652F8C5DEFA23284C799B7D94416DEE81E05A866302DC70192A5368EA65E1CED8BF107A1E2D3119A71E85DC1A7B0C1E93274CE04DD0F2ABC8AC7C987FDB00
310
2B6F81757B43502EF7A0D92E416494FAEEA4C9C090CD9557AA4D532F4996A272B94355C5A0E4974EEA9627476F30809B94D8D8D860062E02204643BEC7D0438AF800FC7E2B26955D595421E83C69E1A07E0E3122285835F014AD538188CF9737CE76D464A353FA55A001AB2526B84E985083693BC76FE211CA1D000679C889
310
E3C009832C87E1AC2EDD05C302557422DF0800E316FCAC86978A371F025A6C7DAA9F333E7BD160403A1A06EA75AA9888FF01504B0304140006080800C45E5A4C51464CB48900000043010000360000006662782F44343239333141442D354232432D343136422D383834312D3136413033374244333941432F646972656374
310
6F72792E786D6C9D8F310EC2300C45AF127987122606C71DD918B841D4B851A43646695A717C52A85029031293A5A76FBF6FACEF7DA7264E43906840EF0FA03836E242F406C6DCEE4EA06AC22492573150D1F66C60C640E8938CB705396EEDD86DE9B5042FE27813D640EA63BB001C722AF6E55CB61E4863F58284D5D3F53D
310
D715CE1C3985E63FD7F1B7EBDD617E9F1E504B0304140006080800C45E5A4C14BC36CA42070000551C0000340000006662782F44343239333141442D354232432D343136422D383834312D3136413033374244333941432F6F626A656374732E786D6CDD59596FDB3810FE2B84F665F741B7EDD885E3C2475C186DDAA24617
310
FB26D032ED70A30B9494D8FBEB774891B2A4C8B6926D8162132056687238F3CD3D1ABF3F84017A222CA57174ABD986A52112F9F19646FB5B2DCF76FA5043EF2768CCE238ABECD350844372ABF1656D32DEB3384FE4D296EC701E345797B3BF50EA938868C80F709ADE6AA9FF40426CE03C8BB7247D34B638C3C67E77306CA3
310
D85827BB673879685C956046A20C5885F508A8480EECFABF209239199B7C436D9BD36D9B7B619B2904AF334AA334C391FF82AB061DA71B57AEDD5BDC39FD91DEEFF55CBD37706C7DB69C2D74FBC6B5E683F97C34BD1B696832DEC471502A2021D116B478D426F6D8E4DF94E24B14DAF8F6E32822BE44B36DC39648BA94A44D
310
4C6AC0DA42B48A420A592B0B6E47E1CF6CEB044A8DA51ADA4A38F559B5DE78F337809076B15296126EE569C640D712FBC21FACB159ACD6F4425314E28C308A0314D00DC30C14045B0B05D5C8706FE1A410C74C6851D1ABF20A867DDD97DAB8DCE541C0FD579B084FF3C01F49960ACEE83F849DB8AFDE063C81B4398DB2A114
310
363B2640623436C562F19DEBC82F0B20D12EC07BB01610936F729D065E731E0B560B6DF271B939AC797C68BF3C61714258C62D4F38B3F43BA5C18A6981F17500A5C0B5AEBB132ADF00FACF807CC90B1A83E6183DF40E3D253BC351BA8B5908DA4116D22DF86321FEF8E2696C96872708D562E5394CC16D7F10A635316A7757
310
209D8C9FC0E863E64AE1D63E0EC0A6EF69C4FD1C0C0505312C41BCDF6D0EDA6405C11416E1140E407AF81D9BFC11C1474107E24D43436DE1B783A294C334FDECA4AB0F60338CFAA5AA6A329EC3B7FF43F09D2ED61FD739DB619FDC4BC75E901D8D6806C9B49DA11AE83597FFBEFA2C3CF2853CB55D3EDCB38F79E068D1CB5A
310
EA0509C5002B3C0F17AA112BF714DC3D087044E23C95EB6D81CA8F8398799BA357F870EB5D7F2A23282E03FFE616D01ACC20BBFB8C261C146D22C52B23A171C289C7416980FB42A9DE06FB8F1C5ECF8788F5163EC06A316B12CDC3C4C3619C473C7CBF34EFA668866B891FDB1E39D6C8198EFA7D69F0C0BBB840F98F0A0E25
310
FBFCA6102767AE99D7F425E38602B2F0A41EC4CB36197CA89AF2CC8B13ECD3ACDD1A1A627464794B77BB3C85B0DE0A4C8363C3B5FB0536EAAFE320EB15AB255397A5954C7934C47BE2ED30CF89ADFCD5002D892B25B522B90FE234A51149454DF322D63550B40C081D85A52BAA2D664B532F24197E8BC58A24D93058467681
310
07D557C6EBDFEBF6AA1894F9F61C455EEBC59127E43F7A290E93A0A8EBAE61603B8D1B5A71E54CF32B9EC03E3D9C79D6968832FD1AF53292287C3B511FBD99FC197818FEE9F0A82B2814EB9055AF6BD636FAF688FF0C210C0DFAB63BB82955710D2D7559C6EB9620874ACB3F7ACF84EE1FBA0541A5F28BF7A424D8793408F2
310
D02B7248464228DB7096B34E1E3B8068D2BC484686864B546EDAD1008AEACE6156D42BAA6281CB44C1722ECC56AE01A168047D5D27415E48D16AC44217A287E5ADDA75FDBF9EEA7F8E98D5DEE6911C9F63B66DE5B45E7AA8AA4D15193C60CA9C58AA57509E8CABEE178A66E73A0E3D454446B8A2B39016C2C813E5C30CD135
310
B5F61CE933CE7C08A56BF1A9CFC023B6647BAA436AE4E468449BC0A58A9AAA6DABDD11843B9E406AC5DA8A87D41026149847DA7BFE107CC3A06AA8165353564266B1BEE2A9CD8061CC898F0BB4BE7C5837A8C04AE7D35F3946E4B94141AECE79F17781D4F7D5A9C66D5090127D5F5D389E3DE4E126C294E7466E16789BBC7B
310
2FFACF5B139A0B73D17346AE3D5DE8FD9933D77BF660A60F873D5BB70753CBBD992DDCD1746E3292C639F3496A3AA6E5A96A2B89F6CA300AE8BA74213089B8DE2E2A7B6E2AF8FFDB85CC8E9FF0B13A09A819E3AFDA8594151FAFC91ACED8B50B698DD49BD7B50CF68B48DD9EC55E556C17030665E197F316442395F0BB5717
310
8AB44AF1ED3C5752E22B33EFD906E7A727995A446F4D10B51D6D31BF66FF7C60D592A6544B2C02DBD2B29CFEACDFD7974B67AAF78677237D3A9F0DF545AFEF4EDDBB856D2D1725E23219764D2CBF441055CC56666F30424EE380C2249F6CD19EC4D004C1A8A243806521494573031580CCE3EA354287D34FC52036C39B409D
310
F61F304CB3039992731F26A9D078DC6A721DFD06B3533EBE14132DE311328FB4760DE58CDE6A6002198504636C600626268E827A63C6096AC3D19EB74DC5A9F2FFD3318E0ED8CA49AE724F175CA46435EB847942225E2E40B45315C9DB4557EC209CC1E326CF4A614E0B27692408EA2D42211C8C0A1F25BC07083C97E5B20D
310
B1A70649A771FE453B28A8EA19667B3193AFE03D5D7C35F9387DF5052541BEE7EABC94F06B94745E68047931B91A8361483113CC5BF1F93BF32B8BE1BD548896148C00FD7E180EFE30E77118C651B1644EE5DB2DB47E8077555B53CD09A172B1EC1B53143EF25D000CBB5262E06DFA080BA05A46F940B580B866006578AA18
310
80D208D7051CABED5F2D904C02951AB65ABB7278C48B00048EC45F0071B7A96EA84C2DC11780AB62B85B3EA885B1C960723EF917504B0304140006080800C45E5A4C76AE8E18E2000000550100003C0000006662782F44343239333141442D354232432D343136422D383834312D3136413033374244333941432F7265736F
310
75726365732F322F636E782E786D6C4D90CD6AC33010845F45087AB42C99B4A461ADBC444FBD0455DEA822B6D6E8A7346F5F2955A1A75D663E96D981F3F7B6B22F8CC95398B91292330C96161FDCCC4BBE0E47CECE1A2251FE877116CC86336F32D7E02295BD4B0B5E4D599BBAFA70EBA2BC380C18BDBDECC171665793D2CC
310
93FDC4CD0853322D986E6231D9082522262AD1623D91FD86FD848D68322E5C4F521D07390DD3CB9B52A7E7C349BEBEC3D8480D1F446BE77DC818697F9AA4A5BA869A48C2D8000D25FA4EB537AAF1174FD47830565B43CAB176D0B17CDF2BE637E3707C20BFAE86B13D59C7A3813A5B21FA07504B0304140006080800C45E5A
310
4CFF15A4A45D000000800000003A0000006662782F44343239333141442D354232432D343136422D383834312D3136413033374244333941432F7265736F75726365732F636E782E786D6C4D8B3B0E80201005AF42B6F75B59F0390B113044D83508C6E30BC6C26AF226F3B8BA6360974DA7271430F523308B2B198F9B8092
310
5DB700539227A2FCCB80A18E5640D320F996A81C9F32D6E9129A0D1EF74FCE750E6D57BC7165FBCA07504B0304140006080800C45E5A4C204CFFDC4301000056050000300000006662782F44343239333141442D354232432D343136422D383834312D3136413033374244333941432F636E782E786D6CCD94C14E03211086
310
5F6543E2716177A3A61A96261E7C020FC61BCB4E572C0B1B188C7D7BA16E5B8D69F4D0A4BD91E123F9FF999FE1CB8FD114EFE08376B62535AD480156B95EDBA1251157E582144BC1BD73F80D23859523B4249789E08377719A4B3DAC6434B96AB45DCF4589E87517110229949121B424A857182595115D0F614D7B8992D6D4
310
4370D12B48EF518F30BF571E24424F4453D58BB26ACAE6F6A9AEEF6FAEEFABBB17CE322978E79C99796D11BC9BAE9A4AB974B4494EC55906048F5ECF54F640C4411BEDB4E52CDD0B1E925E3BCC1C6EA6CC4D93D14A626A14730A01CB04811C39FB820567D9F10FDF8F0FCF070DE9D46B0F0A9DDF9CAD0DF5B136ECA5D19488
310
FF75610BFE65DE756FC9F2F9E67ED4F02CEC647677C90D29BABF9390F224ED602EF103ECA59D3EFF69B1A05697687AA7EC449ED97605A6C1E78D283E01504B0304140006080800C45E5A4C87412ADB7E000000A30000000B0000006662782F636E782E786D6C4D8CD10A832018465F45FE7BB74CD70CCAD07C91581632D370
310
39F6F8D3D1C5AE3E387CE774C36773E86DE2CB06DF03B954808C7F84D9FAB587742C98031A44174338FE6E80FCB4991E0A06D1AD31A4FD44B359A6E40A75D63F4FA859DD522235BEA97AC48C340A73CE08268DACE85D69DACA311BD7A2E4F9F5F296BCF802504B0304140006080800C45E5A4CA6D797065F00000082000000
310
07000000636E782E786D6C4DCB3B0E80201045D1AD90E9FD7516806B51190811670C8A61F982B1B0BAC9C97B72CA7B1037C6D3332918DA1E04D2CAC69353902EDB8C20262D23F3F59B81A079470595414B17391D1F19B4730A5583A7ED43BBE4025D9592775E5ADFFA01504B0304140006080800C45E5A4CECFD112DA80000
310
0026010000130000005B436F6E74656E745F54797065735D2E786D6C7D4F4B0EC22010BD0A61DF525D18634ABB506FE00510A79458060253536F2FD89D5197F3FED3F68B9BD80362B21E25DFD40D6780DADF2C1AC9671AAA3D677DD75E9E0112CB5A4C928F44E12044D22338956A1F003333F8E814E5331A1194BE2B0362DB
310
343BA13D122055543278D79E6050F344ECBC6478EDCD76CE8EABAE5449AE4298AC56946789C28AAFBEABC53F3EAF09A84A1441B91F0101CD4780756578C173A578FFDDBD00504B0304140006080800C45E5A4C3DEE336E64000000790000001B0000006175746F6465736B2D64657369676E2D7061636B6167652E786D6C35
310
CBC10E83200C00D05F21DCA56CA76D41FC96062B120735B69A7DBE268BB7777961F8D5AF396893C2ADB70FE7ADA196782C2DF776D7A97B5933C430F15651E5469C55D70F80A4992A3ADC954792C525AE70A1E4D6AD9816CC044FEFDF01FE3FDE907802504B0304140006080800C45E5A4CA23F7EACF30000008E0100003D00
310
00006662782F44343239333141442D354232432D343136422D383834312D3136413033374244333941432F7265736F75726365732F322F636F72652E786D6C8550CB6EC32010FC158B3B366062D91126AADCFA0B7AEA0D01715062B07854FDFC42EC4AEDA9A75DCDCECCEE0EBB7CAD8FEA53FB609C1D01AE11A8B4954E19BB
310
8C20C52BEC4175E1CC3B177FD14065C5AA475060C0D9E25DDA0E483A1BB52DA8754A1FA008414750C9476E4610E44DAFA216296646B8D79B9077B1E81AD73B8FB3948C3AA44665377335DA03FE42DE50874F1DA494CE9092A987C3344F70A643DBF56D8FD1EBC49A22E62C9AF567BBF45A44AD002708F7101148BA778CCF27
310
7A46C3076B0A93B3107DFEF9585ABECB74D6ECE81FB7B4A9FFDD92B1B12587DBAE0880E37CDC73C05953D2C9E5195DAE2549FE0D504B0304140006080800C45E5A4CF5189047F8000000960100003B0000006662782F44343239333141442D354232432D343136422D383834312D3136413033374244333941432F7265736F
310
75726365732F636F72652E786D6C8550CB6E833010FC15B47703068220328E2A5ABEA0A7DE2CB32156828DFCA8FAF9B50395DA534FBB9A9D99DD1D76F95A1FD9275AA78C1E80E62564A8A599955E0608FE4A3AC82E9C5963FC2F1A645AAC38408281B3C59AB01D9034DAA34EA836331EA0700E3D64F2119B019CBCE12A7211
310
7C64B87BBE0979170BE634DF799C85A0E643AAE6E8A6AE0A2DF097EAAD6CE9A9254DD34CA4A9C68EF4E33492A9E9EBB6AB3B5ABE8EAC4862CEBC5A7FB64B8BC2E30CBC2A6947CA8A54ED3BA5E753732EFB0F56242667CEDBF8F3B1347D07DCA233C14A74ACD8A77F5CC336FFEF1A94F67575B8EE0A079CC6239F03CE8A9452
310
2CCF08634D89F26F504B0304140006080800C45E5A4C38AAE49DF1000000B1010000310000006662782F44343239333141442D354232432D343136422D383834312D3136413033374244333941432F636F72652E786D6C8D50CB6E833010FC15B47703368442641C41F8849E7AB3B043AD041BF951F5F36B072AB5B79CD69A
310
9DF1CC0EBD7CAF8FEC4B5AA78CEE01E7256452CF4628BDF410FC0DB5905D18B5C6F83F34C8345F650F090646176BC27640B3D15EEA846A23E40172E7A4876C7EC4470F6EFE942BCF79F091E1EEF9C6E73B5F648EF39DC7A857EBAF74B6927B29809112B7A8248834EF189F4FF5B9EC3E6891988C86A0C461A544745737252D
310
B0A9265D8587099D467245356E46D4B63546B819CAEA6D9CAA6EB8D222891975DEC69B8F4FD275AFCA77E1BFCC61132F6456DA57E430DC150E188E799E0B468B54601CCF76E34C65B31F504B0304140006080800C45E5A4C3B49C38753010000DD0200000C0000006662782F636F72652E786D6C8D525D6F832014FD2B8677
310
54A83576419AC5ADBF604F7BA3481DA9824130FDF9033FE27C58B7982039F7DE73EE39819C1F5D1B8DC20C52AB12A0380591505CD752352570F6060B109D29315ADB1F6D2052AC13250830A0A431DAF50BC4B5B2420554E95A2C201B066141C45B7F29C1C0BF44C762E6ACEF18EE71CFF89D352246F1DC478973B25E4665ED
310
D9E44D0A03E82B7E4F7374CC6196651798E1AA80A7EA52C14B763AE4C5A140E95B4592304C8995DDAACE8D6056D480E2141530C510E71F08BD1CB397F4F44992D049C9608DF7BC88067780DEAE0F92CCF88ECFF5F5DF7C4E2A7BC00BDF3C31008AFC7A53819224E4E37F5378FB0CBDB0CFCFB26BBB5AB87B6814DC6A93F94A
310
ADDD561A59EB84A74EA3E923C95CF5CC13C16F3CF809CF730E1F14538D5F8D597FBD3A1BD4F73BF5C2C0D13E22A54DC7DA6DB979C5EDDC847696D671AE5B6DFE33BD5A5DC34CC2C3A4DF504B0304140006080800C45E5A4C974E602306010000B201000008000000636F72652E786D6C8D50C16E842014FC15F2EE28A06B74
310
836C1A5BBFA0A7DEA8B096AC8211DCB47F5F586DD2DE7A7A6466DE9B61F8E5739ED05DAFDE38DB02CD08206D07A78C1D5BD8C215D7802E82AFCE855F324056CEBA850483E0E3EAB6E580066783B609B54EE90394DEEB006898E2A3053F7CE85966720B51E16FD922879B1C7546B35D277830F3CFEAB06A19B402C108AD3161
310
9855AF949E4FE599346F3C4F4AC1B7CDA8C3CAA8E86EAE46AF209ED80BA9E8A9C26559F6B8645D8D9BAEEF705F364555173525CF1DCFD3B2E03EACF1CFC7919833202FEFC997E73B25F8BB73D32188A1147276FA0241789E883FA1B745FD23B4B1A160C7C17DC383A031D08388C6A9C1381EF5C699DA16DF504B0102140014
310
0006080800C45E5A4C0000000000000000000000003700000000000000000000000000000000006662782F44343239333141442D354232432D343136422D383834312D3136413033374244333941432F617474726962757465732E62696E504B01021400140006080800C45E5A4C0000000000000000000000003500000000
310
000000000000000000550000006662782F44343239333141442D354232432D343136422D383834312D3136413033374244333941432F76657274696365732E62696E504B01021400140006080800C45E5A4CF270F13306000000040000003600000000000000000000000000A80000006662782F44343239333141442D3542
310
32432D343136422D383834312D3136413033374244333941432F747269616E676C65732E62696E504B01021400140006080800C45E5A4C88E57597CD3F0000904100004200000000000000000000000000020100006662782F44343239333141442D354232432D343136422D383834312D3136413033374244333941432F72
310
65736F75726365732F322F305F67656E657269632E706E67504B01021400140006080800C45E5A4C51464CB4890000004301000036000000000000000000000000002F4100006662782F44343239333141442D354232432D343136422D383834312D3136413033374244333941432F6469726563746F72792E786D6C504B01
310
021400140006080800C45E5A4C14BC36CA42070000551C000034000000000000000000000000000C4200006662782F44343239333141442D354232432D343136422D383834312D3136413033374244333941432F6F626A656374732E786D6C504B01021400140006080800C45E5A4C76AE8E18E2000000550100003C000000
310
00000000000000000000A04900006662782F44343239333141442D354232432D343136422D383834312D3136413033374244333941432F7265736F75726365732F322F636E782E786D6C504B01021400140006080800C45E5A4CFF15A4A45D000000800000003A00000000000000000000000000DC4A00006662782F443432
310
39333141442D354232432D343136422D383834312D3136413033374244333941432F7265736F75726365732F636E782E786D6C504B01021400140006080800C45E5A4C204CFFDC43010000560500003000000000000000000000000000914B00006662782F44343239333141442D354232432D343136422D383834312D3136
310
413033374244333941432F636E782E786D6C504B01021400140006080800C45E5A4C87412ADB7E000000A30000000B00000000000000000000000000224D00006662782F636E782E786D6C504B01021400140006080800C45E5A4CA6D797065F000000820000000700000000000000000000000000C94D0000636E782E786D
310
6C504B01021400140006080800C45E5A4CECFD112DA80000002601000013000000000000000000000000004D4E00005B436F6E74656E745F54797065735D2E786D6C504B01021400140006080800C45E5A4C3DEE336E64000000790000001B00000000000000000000000000264F00006175746F6465736B2D64657369676E
310
2D7061636B6167652E786D6C504B01021400140006080800C45E5A4CA23F7EACF30000008E0100003D00000000000000000000000000C34F00006662782F44343239333141442D354232432D343136422D383834312D3136413033374244333941432F7265736F75726365732F322F636F72652E786D6C504B010214001400
310
06080800C45E5A4CF5189047F8000000960100003B00000000000000000000000000115100006662782F44343239333141442D354232432D343136422D383834312D3136413033374244333941432F7265736F75726365732F636F72652E786D6C504B01021400140006080800C45E5A4C38AAE49DF1000000B10100003100
310
000000000000000000000000625200006662782F44343239333141442D354232432D343136422D383834312D3136413033374244333941432F636F72652E786D6C504B01021400140006080800C45E5A4C3B49C38753010000DD0200000C00000000000000000000000000A25300006662782F636F72652E786D6C504B0102
310
1400140006080800C45E5A4C974E602306010000B201000008000000000000000000000000001F550000636F72652E786D6C504B050600000000120012002D0600004B5600000000
  0
XRECORD
  5
17
102
{ACAD_REACTORS
330
12
102
}
330
12
100
AcDbXrecord
280
     1
270
     1
271
     1
  0
XRECORD
  5
16
102
{ACAD_REACTORS
330
12
102
}
330
12
100
AcDbXrecord
280
     1
270
     1
271
     1
  0
XRECORD
  5
18
102
{ACAD_REACTORS
330
12
102
}
330
12
100
AcDbXrecord
280
     1
270
     1
271
     1
  0
XRECORD
  5
15
102
{ACAD_REACTORS
330
12
102
}
330
12
100
AcDbXrecord
280
     1
270
     1
271
     1
  0
XRECORD
  5
24
102
{ACAD_REACTORS
330
22
102
}
330
22
100
AcDbXrecord
280
     1
270
     1
271
     1
  0
XRECORD
  5
23
102
{ACAD_REACTORS
330
22
102
}
330
22
100
AcDbXrecord
280
     1
270
     1
271
     1
  0
XRECORD
  5
27
102
{ACAD_REACTORS
330
22
102
}
330
22
100
AcDbXrecord
280
     1
270
     1
271
     1
  0
XRECORD
  5
26
102
{ACAD_REACTORS
330
22
102
}
330
22
100
AcDbXrecord
280
     1
270
     1
271
     1
  0
XRECORD
  5
28
102
{ACAD_REACTORS
330
22
102
}
330
22
100
AcDbXrecord
280
     1
270
     1
271
     1
  0
XRECORD
  5
25
102
{ACAD_REACTORS
330
22
102
}
330
22
100
AcDbXrecord
280
     1
270
     1
271
     1
  0
XRECORD
  5
506
102
{ACAD_REACTORS
330
49F
102
}
330
49F
100
AcDbXrecord
280
     1
102
DISPLAYNAME
  1
Imperial24
102
FLAGS
 90
        0
  0
XRECORD
  5
525
102
{ACAD_REACTORS
330
524
102
}
330
524
100
AcDbXrecord
280
     1
102
DISPLAYNAME
  1
Metric50
102
FLAGS
 90
        0
  0
CELLSTYLEMAP
  5
505
102
{ACAD_REACTORS
330
49D
102
}
330
49D
100
AcDbCellStyleMap
 90
        3
300
CELLSTYLE
  1
TABLEFORMAT_BEGIN
 90
        5
170
     1
 91
        0
 92
    32768
 62
   257
 93
        1
300
CONTENTFORMAT
  1
CONTENTFORMAT_BEGIN
 90
        0
 91
        0
 92
      512
 93
        0
300

 40
0.0
140
1.0
 94
        5
 62
     0
340
55
144
0.25
309
CONTENTFORMAT_END
171
     1
301
MARGIN
  1
CELLMARGIN_BEGIN
 40
0.06
 40
0.06
 40
0.06
 40
0.06
 40
0.18
 40
0.18
309
CELLMARGIN_END
 94
        6
 95
        1
302
GRIDFORMAT
  1
GRIDFORMAT_BEGIN
 90
        0
 91
        1
 62
     0
 92
       -2
340
0
 93
        0
 40
0.045
309
GRIDFORMAT_END
 95
        2
302
GRIDFORMAT
  1
GRIDFORMAT_BEGIN
 90
        0
 91
        1
 62
     0
 92
       -2
340
0
 93
        0
 40
0.045
309
GRIDFORMAT_END
 95
        4
302
GRIDFORMAT
  1
GRIDFORMAT_BEGIN
 90
        0
 91
        1
 62
     0
 92
       -2
340
0
 93
        0
 40
0.045
309
GRIDFORMAT_END
 95
        8
302
GRIDFORMAT
  1
GRIDFORMAT_BEGIN
 90
        0
 91
        1
 62
     0
 92
       -2
340
0
 93
        0
 40
0.045
309
GRIDFORMAT_END
 95
       16
302
GRIDFORMAT
  1
GRIDFORMAT_BEGIN
 90
        0
 91
        1
 62
     0
 92
       -2
340
0
 93
        0
 40
0.045
309
GRIDFORMAT_END
 95
       32
302
GRIDFORMAT
  1
GRIDFORMAT_BEGIN
 90
        0
 91
        1
 62
     0
 92
       -2
340
0
 93
        0
 40
0.045
309
GRIDFORMAT_END
309
TABLEFORMAT_END
  1
CELLSTYLE_BEGIN
 90
        1
 91
        1
300
_TITLE
309
CELLSTYLE_END
300
CELLSTYLE
  1
TABLEFORMAT_BEGIN
 90
        5
170
     1
 91
        0
 92
        0
 62
   257
 93
        1
300
CONTENTFORMAT
  1
CONTENTFORMAT_BEGIN
 90
        0
 91
        0
 92
      512
 93
        0
300

 40
0.0
140
1.0
 94
        5
 62
     0
340
55
144
0.18
309
CONTENTFORMAT_END
171
     1
301
MARGIN
  1
CELLMARGIN_BEGIN
 40
0.06
 40
0.06
 40
0.06
 40
0.06
 40
0.18
 40
0.18
309
CELLMARGIN_END
 94
        6
 95
        1
302
GRIDFORMAT
  1
GRIDFORMAT_BEGIN
 90
        0
 91
        1
 62
     0
 92
       -2
340
0
 93
        0
 40
0.045
309
GRIDFORMAT_END
 95
        2
302
GRIDFORMAT
  1
GRIDFORMAT_BEGIN
 90
        0
 91
        1
 62
     0
 92
       -2
340
0
 93
        0
 40
0.045
309
GRIDFORMAT_END
 95
        4
302
GRIDFORMAT
  1
GRIDFORMAT_BEGIN
 90
        0
 91
        1
 62
     0
 92
       -2
340
0
 93
        0
 40
0.045
309
GRIDFORMAT_END
 95
        8
302
GRIDFORMAT
  1
GRIDFORMAT_BEGIN
 90
        0
 91
        1
 62
     0
 92
       -2
340
0
 93
        0
 40
0.045
309
GRIDFORMAT_END
 95
       16
302
GRIDFORMAT
  1
GRIDFORMAT_BEGIN
 90
        0
 91
        1
 62
     0
 92
       -2
340
0
 93
        0
 40
0.045
309
GRIDFORMAT_END
 95
       32
302
GRIDFORMAT
  1
GRIDFORMAT_BEGIN
 90
        0
 91
        1
 62
     0
 92
       -2
340
0
 93
        0
 40
0.045
309
GRIDFORMAT_END
309
TABLEFORMAT_END
  1
CELLSTYLE_BEGIN
 90
        2
 91
        1
300
_HEADER
309
CELLSTYLE_END
300
CELLSTYLE
  1
TABLEFORMAT_BEGIN
 90
        5
170
     1
 91
        0
 92
        0
 62
   257
 93
        1
300
CONTENTFORMAT
  1
CONTENTFORMAT_BEGIN
 90
        0
 91
        0
 92
      512
 93
        0
300

 40
0.0
140
1.0
 94
        2
 62
     0
340
55
144
0.18
309
CONTENTFORMAT_END
171
     1
301
MARGIN
  1
CELLMARGIN_BEGIN
 40
0.06
 40
0.06
 40
0.06
 40
0.06
 40
0.18
 40
0.18
309
CELLMARGIN_END
 94
        6
 95
        1
302
GRIDFORMAT
  1
GRIDFORMAT_BEGIN
 90
        0
 91
        1
 62
     0
 92
       -2
340
0
 93
        0
 40
0.045
309
GRIDFORMAT_END
 95
        2
302
GRIDFORMAT
  1
GRIDFORMAT_BEGIN
 90
        0
 91
        1
 62
     0
 92
       -2
340
0
 93
        0
 40
0.045
309
GRIDFORMAT_END
 95
        4
302
GRIDFORMAT
  1
GRIDFORMAT_BEGIN
 90
        0
 91
        1
 62
     0
 92
       -2
340
0
 93
        0
 40
0.045
309
GRIDFORMAT_END
 95
        8
302
GRIDFORMAT
  1
GRIDFORMAT_BEGIN
 90
        0
 91
        1
 62
     0
 92
       -2
340
0
 93
        0
 40
0.045
309
GRIDFORMAT_END
 95
       16
302
GRIDFORMAT
  1
GRIDFORMAT_BEGIN
 90
        0
 91
        1
 62
     0
 92
       -2
340
0
 93
        0
 40
0.045
309
GRIDFORMAT_END
 95
       32
302
GRIDFORMAT
  1
GRIDFORMAT_BEGIN
 90
        0
 91
        1
 62
     0
 92
       -2
340
0
 93
        0
 40
0.045
309
GRIDFORMAT_END
309
TABLEFORMAT_END
  1
CELLSTYLE_BEGIN
 90
        3
 91
        2
300
_DATA
309
CELLSTYLE_END
  0
ENDSEC
  0
EOF
